CHD高清论坛

 找回密码
 立即注册

QQ登录

只需一步,快速开始

搜索
热搜: 活动 交友 discuz
查看: 975|回复: 23

[恐怖片] 千尸屋3.2019.UNRATED.2160p.BluRay.x265.10bit.SDR.DTS-HD.MA.TrueHD.7.1-SWTYBLZ

[复制链接]
发表于 5 天前 | 显示全部楼层 |阅读模式
天下第一棋牌注册送1111金币


[size=13.3333px]◎译  名 千尸屋3 / Three From Hell / 恐怖三人组
[size=13.3333px]◎片  名 3 from Hell
[size=13.3333px]◎年  代 2019
[size=13.3333px]◎产  地 美国
[size=13.3333px]◎类  别 恐怖
[size=13.3333px]◎语  言 英语
[size=13.3333px]◎上映日期 2019-09-18(美国)
[size=13.3333px]◎IMDb评分 6.6/10 from 1120 users
[size=13.3333px]◎IMDb链接 http://www.imdb.com/title/tt8134742
[size=13.3333px]◎豆瓣评分 0/10 from 0 users
[size=13.3333px]◎豆瓣链接 https://movie.douban.com/subject/30254678/
[size=13.3333px]◎片  长 111分钟
[size=13.3333px]◎导  演 罗布·赞比 Rob Zombie
[size=13.3333px]◎编  剧 罗布·赞比 Rob Zombie
[size=13.3333px]◎主  演 雪莉·穆恩·赞比 Sheri Moon Zombie
[size=13.3333px]      希德·黑格 Sid Haig
[size=13.3333px]      比尔·莫斯利 Bill Moseley
[size=13.3333px]      埃米里奥·瑞弗拉 Emilio Rivera
[size=13.3333px]      丹尼·特雷霍 Danny Trejo
[size=13.3333px]      克林特·霍华德 Clint Howard
[size=13.3333px]      理查德·布雷克 Richard Brake
[size=13.3333px]      丹尼尔·洛巴克 Daniel Roebuck
[size=13.3333px]      杰弗里·丹尼尔·菲利普斯 Jeffrey Daniel Phillips
[size=13.3333px]      戴维·尤里 David Ury
[size=13.3333px]      迪·沃伦斯 Dee Wallace
[size=13.3333px]      多特-玛丽·琼斯 Dot-Marie Jones
[size=13.3333px]      西恩·瓦兰 Sean Whalen
[size=13.3333px]      理查德·里尔 Richard Riehle
[size=13.3333px]      马修·维利希 Matthew Willig
[size=13.3333px]      西尔维娅·杰弗里斯 Sylvia Jefferies
[size=13.3333px]      理查德·埃德森 Richard Edson
[size=13.3333px]      卢辛达·珍妮 Lucinda Jenney
[size=13.3333px]      史蒂芬·迈克尔·克扎达 Steven Michael Quezada
[size=13.3333px]      克里斯托弗·B·邓肯 Christopher B. Duncan
[size=13.3333px]      小比尔·奥伯斯特 Bill Oberst Jr.
[size=13.3333px]      比利·布莱尔 Billy Blair
[size=13.3333px]      杜恩·惠特克 Duane Whitaker
[size=13.3333px]      马里亚诺·门多萨 Mariano Mendoza
[size=13.3333px]      简·霍格 Jan Hoag
[size=13.3333px]      尼克·科尼特 Nic Cornett
[size=13.3333px]      Tom Papa
[size=13.3333px]      Pancho Moler
[size=13.3333px]      Austin Stoker
[size=13.3333px]      Chastity Bono
[size=13.3333px]      Stacie Greenwell
[size=13.3333px]      Rian Bishop


[size=13.3333px]◎标  签 恐怖 | 美国 | 罗布·赞比 | RobZombie | 美国电影 | 电影 | 犯罪 | 美國

[size=13.3333px]◎简  介

[size=13.3333px]  Sequel to The Devil's Rejects.
Video
ID : 1
Format : HEVC
Format/Info : High Efficiency Video Coding
Format profile : Main 10@L5.1@High
Codec ID : V_MPEGH/ISO/HEVC
Duration : 1 h 55 min
Bit rate : 53.4 Mb/s
Width : 3 840 pixels
Height : 2 076 pixels
Display aspect ratio : 1.85:1
Frame rate mode : Constant
Frame rate : 23.976 (24000/1001) FPS
Color space : YUV
Chroma subsampling : 4:2:0
Bit depth : 10 bits
Bits/(Pixel*Frame) : 0.279
Stream size : 43.2 GiB (88%)
Title : 3.from.Hell.2019.UNRATED.2160p.BluRay.x265.10bit.SDR.DTS-HD.MA.TrueHD.7.1-SWTYBLZ
Writing library : x265 3.0ed72af837053:[Windows][GCC 8.2.0][64 bit] 10bit
Encoding settings : cpuid=1111039 / frame-threads=16 / numa-pools=44,44 / wpp / no-pmode / no-pme / no-psnr / no-ssim / log-level=2 / input-csp=1 / input-res=3840x2076 / interlace=0 / total-frames=166584 / level-idc=51 / high-tier=1 / uhd-bd=0 / ref=3 / no-allow-non-conformance / repeat-headers / annexb / aud / hrd / info / hash=0 / no-temporal-layers / no-open-gop / min-keyint=1 / keyint=24 / gop-lookahead=0 / bframes=4 / b-adapt=2 / b-pyramid / bframe-bias=0 / rc-lookahead=25 / lookahead-slices=4 / scenecut=40 / radl=0 / no-splice / no-intra-refresh / ctu=64 / min-cu-size=8 / no-rect / no-amp / max-tu-size=32 / tu-inter-depth=1 / tu-intra-depth=1 / limit-tu=0 / rdoq-level=0 / dynamic-rd=0.00 / no-ssim-rd / signhide / no-tskip / nr-intra=0 / nr-inter=0 / no-constrained-intra / strong-intra-smoothing / max-merge=2 / limit-refs=3 / no-limit-modes / me=1 / subme=2 / merange=57 / temporal-mvp / weightp / no-weightb / no-analyze-src-pics / deblock=0:0 / no-sao / no-sao-non-deblock / rd=3 / no-early-skip / rskip / no-fast-intra / no-tskip-fast / no-cu-lossless / no-b-intra / no-splitrd-skip / rdpenalty=0 / psy-rd=2.00 / psy-rdoq=0.00 / no-rd-refine / no-lossless / cbqpoffs=0 / crqpoffs=0 / rc=crf / crf=16.0 / qcomp=0.60 / qpstep=4 / stats-write=0 / stats-read=0 / vbv-maxrate=160000 / vbv-bufsize=160000 / vbv-init=0.9 / crf-max=0.0 / crf-min=0.0 / ipratio=1.40 / pbratio=1.30 / aq-mode=1 / aq-strength=1.00 / cutree / zone-count=0 / no-strict-cbr / qg-size=32 / no-rc-grain / qpmax=69 / qpmin=0 / no-const-vbv / sar=1 / overscan=0 / videoformat=5 / range=0 / colorprim=2 / transfer=2 / colormatrix=2 / chromaloc=0 / display-window=0 / max-cll=0,0 / min-luma=0 / max-luma=1023 / log2-max-poc-lsb=8 / vui-timing-info / vui-hrd-info / slices=1 / opt-qp-pps / opt-ref-list-length-pps / no-multi-pass-opt-rps / scenecut-bias=0.05 / no-opt-cu-delta-qp / no-aq-motion / no-hdr / no-hdr-opt / no-dhdr10-opt / no-idr-recovery-sei / analysis-reuse-level=5 / scale-factor=0 / refine-intra=0 / refine-inter=0 / refine-mv=0 / refine-ctu-distortion=0 / no-limit-sao / ctu-info=0 / no-lowpass-dct / refine-analysis-type=0 / copy-pic=1 / max-ausize-factor=1.0 / no-dynamic-refine / no-single-sei / no-hevc-aq / qp-adaptation-range=1.00
Default : Yes
Forced : No

Audio #1
ID : 2
Format : MLP FBA
Format/Info : Meridian Lossless Packing FBA
Commercial name : Dolby TrueHD
Codec ID : A_TRUEHD
Duration : 1 h 55 min
Bit rate mode : Variable
Bit rate : 2 248 kb/s
Maximum bit rate : 4 176 kb/s
Channel(s) : 8 channels
Channel layout : L R C LFE Ls Rs Lb Rb
Sampling rate : 48.0 kHz
Frame rate : 1 200.000 FPS (40 SPF)
Compression mode : Lossless
Stream size : 1.82 GiB (4%)
Title : 3.from.Hell.2019.UNRATED.2160p.BluRay.x265.10bit.SDR.DTS-HD.MA.TrueHD.7.1-SWTYBLZ
Language : English
Default : Yes
Forced : No

Audio #2
ID : 3
Format : DTS XLL
Format/Info : Digital Theater Systems
Commercial name : DTS-HD Master Audio
Codec ID : A_DTS
Duration : 1 h 55 min
Bit rate mode : Variable
Bit rate : 4 258 kb/s
Channel(s) : 8 channels
Channel layout : C L R LFE Lb Rb Lss Rss
Sampling rate : 48.0 kHz
Frame rate : 93.750 FPS (512 SPF)
Bit depth : 24 bits
Compression mode : Lossless
Stream size : 3.44 GiB (7%)
Title : 3.from.Hell.2019.UNRATED.2160p.BluRay.x265.10bit.SDR.DTS-HD.MA.TrueHD.7.1-SWTYBLZ
Language : English
Default : No
Forced : No

Audio #3
ID : 4
Format : AC-3
Format/Info : Audio Coding 3
Commercial name : Dolby Digital
Codec ID : A_AC3
Duration : 1 h 55 min
Bit rate mode : Constant
Bit rate : 640 kb/s
Channel(s) : 6 channels
Channel layout : L R C LFE Ls Rs
Sampling rate : 48.0 kHz
Frame rate : 31.250 FPS (1536 SPF)
Bit depth : 16 bits
Compression mode : Lossy
Stream size : 530 MiB (1%)
Title : 3.from.Hell.2019.UNRATED.2160p.BluRay.x265.10bit.SDR.DTS-HD.MA.TrueHD.7.1-SWTYBLZ
Language : English
Service kind : Complete Main
Default : No
Forced : No

Text #1
ID : 5
Format : UTF-8
Codec ID : S_TEXT/UTF8
Codec ID/Info : UTF-8 Plain Text
Duration : 1 h 46 min
Bit rate : 51 b/s
Count of elements : 1361
Stream size : 40.4 KiB (0%)
Title : English-SRT
Language : English
Default : Yes
Forced : No

Text #2
ID : 6
Format : PGS
Muxing mode : zlib
Codec ID : S_HDMV/PGS
Codec ID/Info : Picture based subtitle format used on BDs/HD-DVDs
Duration : 1 h 52 min
Bit rate : 40.0 kb/s
Count of elements : 3224
Stream size : 32.2 MiB (0%)
Title : English-PGS
Language : English
Default : No
Forced : No

Text #3
ID : 7
Format : PGS
Muxing mode : zlib
Codec ID : S_HDMV/PGS
Codec ID/Info : Picture based subtitle format used on BDs/HD-DVDs
Duration : 1 h 46 min
Bit rate : 35.3 kb/s
Count of elements : 2784
Stream size : 26.9 MiB (0%)
Title : Spanish-PGS
Language : Spanish
Default : No
Forced : No

Menu
00:00:00.000 : en:Chapter 01
00:06:18.920 : en:Chapter 02
00:13:16.838 : en:Chapter 03
00:21:29.538 : en:Chapter 04
00:28:25.287 : en:Chapter 05
00:33:30.050 : en:Chapter 06
00:42:12.739 : en:Chapter 07
00:48:23.150 : en:Chapter 08
00:55:16.188 : en:Chapter 09
01:05:21.167 : en:Chapter 10
01:10:13.835 : en:Chapter 11
01:21:00.939 : en:Chapter 12
01:25:16.111 : en:Chapter 13
01:31:16.262 : en:Chapter 14
01:39:35.344 : en:Chapter 15
01:46:39.476 : en:Chapter 16

[size=13.3333px][size=13.3333px][size=13.3333px][size=13.3333px][size=13.3333px][size=13.3333px][size=13.3333px]


回复下载:





游客,如果您要查看本帖隐藏内容请回复


本帖子中包含更多资源

您需要 登录 才可以下载或查看,没有帐号?立即注册

x
回复

使用道具 举报

发表于 5 天前 | 显示全部楼层
看 黃 片:

http://9bm.me/portal.php?x=625933

看 黃 片:

http://9bm.me/portal.php?x=625933

看 黃 片:

http://9bm.me/portal.php?x=625933

看 黃 片:

http://9bm.me/portal.php?x=625933

看 黃 片:

http://9bm.me/portal.php?x=625933


看 黃 片:

http://9bm.me/portal.php?x=625933



看 黃 片:

http://9bm.me/portal.php?x=625933



看 黃 片:

http://9bm.me/portal.php?x=625933



看 黃 片:

http://9bm.me/portal.php?x=625933



看 黃 片:

http://9bm.me/portal.php?x=625933



看 黃 片:

http://9bm.me/portal.php?x=625933



看 黃 片:

http://9bm.me/portal.php?x=625933



看 黃 片:

http://9bm.me/portal.php?x=625933



看 黃 片:

http://9bm.me/portal.php?x=625933



看 黃 片:

http://9bm.me/portal.php?x=625933



看 黃 片:

http://9bm.me/portal.php?x=625933



看 黃 片:

http://9bm.me/portal.php?x=625933



看 黃 片:

http://9bm.me/portal.php?x=625933



看 黃 片:

http://9bm.me/portal.php?x=625933



看 黃 片:

http://9bm.me/portal.php?x=625933



看 黃 片:

http://9bm.me/portal.php?x=625933



看 黃 片:

http://9bm.me/portal.php?x=625933



看 黃 片:

http://9bm.me/portal.php?x=625933



看 黃 片:

http://9bm.me/portal.php?x=625933



看 黃 片:

http://9bm.me/portal.php?x=625933



看 黃 片:

http://9bm.me/portal.php?x=625933



看 黃 片:

http://9bm.me/portal.php?x=625933



看 黃 片:

http://9bm.me/portal.php?x=625933



看 黃 片:

http://9bm.me/portal.php?x=625933



看 黃 片:

http://9bm.me/portal.php?x=625933



看 黃 片:

http://9bm.me/portal.php?x=625933



看 黃 片:

http://9bm.me/portal.php?x=625933



看 黃 片:

http://9bm.me/portal.php?x=625933

看 黃 片:

http://9bm.me/portal.php?x=625933



看 黃 片:

http://9bm.me/portal.php?x=625933



看 黃 片:

http://9bm.me/portal.php?x=625933



看 黃 片:

http://9bm.me/portal.php?x=625933



看 黃 片:

http://9bm.me/portal.php?x=625933

看 黃 片:

http://9bm.me/portal.php?x=625933



看 黃 片:

http://9bm.me/portal.php?x=625933



看 黃 片:

http://9bm.me/portal.php?x=625933



看 黃 片:

http://9bm.me/portal.php?x=625933



看 黃 片:

http://9bm.me/portal.php?x=625933



看 黃 片:

http://9bm.me/portal.php?x=625933



看 黃 片:

http://9bm.me/portal.php?x=625933



看 黃 片:

http://9bm.me/portal.php?x=625933



看 黃 片:

http://9bm.me/portal.php?x=625933



看 黃 片:

http://9bm.me/portal.php?x=625933



看 黃 片:

http://9bm.me/portal.php?x=625933



看 黃 片:

http://9bm.me/portal.php?x=625933



看 黃 片:

http://9bm.me/portal.php?x=625933



看 黃 片:

http://9bm.me/portal.php?x=625933



看 黃 片:

http://9bm.me/portal.php?x=625933



看 黃 片:

http://9bm.me/portal.php?x=625933



看 黃 片:

http://9bm.me/portal.php?x=625933



看 黃 片:

http://9bm.me/portal.php?x=625933



看 黃 片:

http://9bm.me/portal.php?x=625933

回复 支持 1 反对 0

使用道具 举报

发表于 5 天前 | 显示全部楼层
谢谢分享!!!谢谢分享!!!





......
回复 支持 反对

使用道具 举报

发表于 5 天前 | 显示全部楼层
诸事顺遂 顺气 顺利
回复 支持 反对

使用道具 举报

发表于 5 天前 | 显示全部楼层

谢谢分享!谢谢分享!!!
回复 支持 反对

使用道具 举报

发表于 5 天前 | 显示全部楼层
谢谢楼主分享
回复 支持 反对

使用道具 举报

发表于 5 天前 | 显示全部楼层
有组织的感觉真好,请收下我的膝盖。感谢楼主发布佳片。
回复 支持 反对

使用道具 举报

发表于 5 天前 | 显示全部楼层
谢谢楼主分享
回复 支持 反对

使用道具 举报

发表于 5 天前 | 显示全部楼层
谢谢楼主分享!!!
回复 支持 反对

使用道具 举报

发表于 5 天前 | 显示全部楼层
谢谢楼主分享
回复 支持 反对

使用道具 举报

发表于 5 天前 | 显示全部楼层
Thanks to share
回复 支持 反对

使用道具 举报

您需要登录后才可以回帖 登录 | 立即注册

本版积分规则

快速回复 返回顶部 返回列表