CHD高清论坛

 找回密码
 立即注册

QQ登录

只需一步,快速开始

搜索
热搜: 活动 交友 discuz
查看: 603|回复: 36

[喜剧片] 优步危机/斯图伯.2019.2160p.BluRay.x264.8bit.SDR.DTS-HD.MA.TrueHD.7.1.Atmos-SWTYBLZ

[复制链接]
发表于 5 天前 | 显示全部楼层 |阅读模式
天下第一棋牌注册送1111金币


[size=13.3333px]◎译  名 优步危机 / 斯图伯 / 狂玩嘢时速(港) / 玩命优步(台)
[size=13.3333px]◎片  名 Stuber
[size=13.3333px]◎年  代 2019
[size=13.3333px]◎产  地 美国
[size=13.3333px]◎类  别 喜剧 / 动作
[size=13.3333px]◎语  言 英语
[size=13.3333px]◎上映日期 2019-07-12(美国)
[size=13.3333px]◎IMDb评分 6.2/10 from 9167 users
[size=13.3333px]◎IMDb链接 http://www.imdb.com/title/tt7734218
[size=13.3333px]◎豆瓣评分 6.5/10 from 246 users
[size=13.3333px]◎豆瓣链接 https://movie.douban.com/subject/27603782/
[size=13.3333px]◎片  长 105分钟
[size=13.3333px]◎导  演 迈克尔·道斯 Michael Dowse
[size=13.3333px]◎编  剧 特里珀·克兰西 Tripper Clancy
[size=13.3333px]◎主  演 戴夫·巴蒂斯塔 Dave Bautista
[size=13.3333px]      库梅尔·南贾尼 Kumail Nanjiani
[size=13.3333px]      伊科·乌艾斯 Iko Uwais
[size=13.3333px]      贝蒂·吉尔平 Betty Gilpin
[size=13.3333px]      米拉·索维诺 Mira Sorvino
[size=13.3333px]      娜塔丽·莫瑞丝 Natalie Morales
[size=13.3333px]      约书亚·米克尔 Joshua Mikel
[size=13.3333px]      阿明·约瑟夫 Amin Joseph
[size=13.3333px]      斯科特·劳伦斯 Scott Lawrence
[size=13.3333px]      克里斯汀·霍恩 Christine Horn
[size=13.3333px]      汉斯·马雷罗 Hans Marrero
[size=13.3333px]      雷内?莫兰 Rene Moran


[size=13.3333px]◎标  签 喜剧 | 动作 | 美国 | 2019 | 犯罪 | 搞笑 | 二十世纪福克斯 | 家庭

[size=13.3333px]◎简  介

[size=13.3333px]  南贾尼饰演一名性格温和的Uber司机,某天载的乘客是一位头发斑白的警察,他正在追捕一名残忍的杀手。司机发现自己面临艰巨考验,他必须要保持冷静,保证服务质量以获得五星好评。
Video
ID : 1
Format : AVC
Format/Info : Advanced Video Codec
Format profile : High@L5.1
Format settings : CABAC / 5 Ref Frames
Format settings, CABAC : Yes
Format settings, Reference frames : 5 frames
Codec ID : V_MPEG4/ISO/AVC
Duration : 1 h 33 min
Bit rate : 37.2 Mb/s
Width : 3 840 pixels
Height : 1 608 pixels
Display aspect ratio : 2.40:1
Frame rate mode : Constant
Frame rate : 23.976 (24000/1001) FPS
Color space : YUV
Chroma subsampling : 4:2:0
Bit depth : 8 bits
Scan type : Progressive
Bits/(Pixel*Frame) : 0.252
Stream size : 24.3 GiB (81%)
Title : Stuber.2019.2160p.BluRay.x264.8bit.SDR.DTS-HD.MA.TrueHD.7.1.Atmos-SWTYBLZ
Writing library : x264 core 157 r2935 545de2f
Encoding settings : cabac=1 / ref=5 / deblock=1:-1:-1 / analyse=0x3:0x113 / me=umh / subme=10 / psy=1 / psy_rd=1.00:0.15 / mixed_ref=1 / me_range=48 / chroma_me=1 / trellis=2 / 8x8dct=1 / cqm=0 / deadzone=21,11 / fast_pskip=1 / chroma_qp_offset=-3 / threads=48 / lookahead_threads=4 / sliced_threads=0 / nr=0 / decimate=0 / interlaced=0 / bluray_compat=0 / constrained_intra=0 / bframes=3 / b_pyramid=2 / b_adapt=2 / b_bias=0 / direct=3 / weightb=1 / open_gop=0 / weightp=2 / keyint=250 / keyint_min=23 / scenecut=40 / intra_refresh=0 / rc_lookahead=50 / rc=crf / mbtree=1 / crf=18.0 / qcomp=0.60 / qpmin=0 / qpmax=69 / qpstep=4 / ip_ratio=1.40 / aq=1:1.00
Default : Yes
Forced : No

Audio #1
ID : 2
Format : MLP FBA 16-ch
Format/Info : Meridian Lossless Packing FBA with 16-channel presentation
Commercial name : Dolby TrueHD with Dolby Atmos
Codec ID : A_TRUEHD
Duration : 1 h 33 min
Bit rate mode : Variable
Bit rate : 3 937 kb/s
Maximum bit rate : 6 696 kb/s
Channel(s) : 8 channels
Channel layout : L R C LFE Ls Rs Lb Rb
Sampling rate : 48.0 kHz
Frame rate : 1 200.000 FPS (40 SPF)
Compression mode : Lossless
Stream size : 2.57 GiB (9%)
Title : Stuber.2019.2160p.BluRay.x264.8bit.SDR.DTS-HD.MA.TrueHD.7.1.Atmos-SWTYBLZ
Language : English
Default : Yes
Forced : No
Number of dynamic objects : 13
Bed channel count : 1 channel
Bed channel configuration : LFE

Audio #2
ID : 3
Format : DTS XLL
Format/Info : Digital Theater Systems
Commercial name : DTS-HD Master Audio
Codec ID : A_DTS
Duration : 1 h 33 min
Bit rate mode : Variable
Bit rate : 3 908 kb/s
Channel(s) : 8 channels
Channel layout : C L R LFE Lb Rb Lss Rss
Sampling rate : 48.0 kHz
Frame rate : 93.750 FPS (512 SPF)
Bit depth : 24 bits
Compression mode : Lossless
Stream size : 2.55 GiB (8%)
Title : Stuber.2019.2160p.BluRay.x264.8bit.SDR.DTS-HD.MA.TrueHD.7.1.Atmos-SWTYBLZ
Language : English
Default : No
Forced : No

Audio #3
ID : 4
Format : AC-3
Format/Info : Audio Coding 3
Commercial name : Dolby Digital
Codec ID : A_AC3
Duration : 1 h 33 min
Bit rate mode : Constant
Bit rate : 640 kb/s
Channel(s) : 6 channels
Channel layout : L R C LFE Ls Rs
Sampling rate : 48.0 kHz
Frame rate : 31.250 FPS (1536 SPF)
Bit depth : 16 bits
Compression mode : Lossy
Stream size : 428 MiB (1%)
Title : Stuber.2019.2160p.BluRay.x264.8bit.SDR.DTS-HD.MA.TrueHD.7.1.Atmos-SWTYBLZ
Language : English
Service kind : Complete Main
Default : No
Forced : No

Text #1
ID : 5
Format : UTF-8
Codec ID : S_TEXT/UTF8
Codec ID/Info : UTF-8 Plain Text
Duration : 1 h 26 min
Bit rate : 84 b/s
Count of elements : 1967
Stream size : 54.0 KiB (0%)
Title : English-SRT
Language : English
Default : Yes
Forced : No

Text #2
ID : 6
Format : PGS
Muxing mode : zlib
Codec ID : S_HDMV/PGS
Codec ID/Info : Picture based subtitle format used on BDs/HD-DVDs
Duration : 1 h 27 min
Bit rate : 62.4 kb/s
Count of elements : 4306
Stream size : 38.9 MiB (0%)
Title : English-PGS
Language : English
Default : No
Forced : No

Text #3
ID : 7
Format : PGS
Muxing mode : zlib
Codec ID : S_HDMV/PGS
Codec ID/Info : Picture based subtitle format used on BDs/HD-DVDs
Duration : 1 h 32 min
Bit rate : 47.6 kb/s
Count of elements : 3592
Stream size : 31.5 MiB (0%)
Title : Spanish-PGS
Language : Spanish
Default : No
Forced : No

Text #4
ID : 8
Format : PGS
Muxing mode : zlib
Codec ID : S_HDMV/PGS
Codec ID/Info : Picture based subtitle format used on BDs/HD-DVDs
Duration : 1 h 32 min
Bit rate : 43.5 kb/s
Count of elements : 3572
Stream size : 28.8 MiB (0%)
Title : French-PGS
Language : French
Default : No
Forced : No

Text #5
ID : 9
Format : PGS
Muxing mode : zlib
Codec ID : S_HDMV/PGS
Codec ID/Info : Picture based subtitle format used on BDs/HD-DVDs
Duration : 1 h 32 min
Bit rate : 43.9 kb/s
Count of elements : 3262
Stream size : 29.1 MiB (0%)
Title : Spanish-PGS
Language : Spanish
Default : No
Forced : No

Text #6
ID : 10
Format : PGS
Muxing mode : zlib
Codec ID : S_HDMV/PGS
Codec ID/Info : Picture based subtitle format used on BDs/HD-DVDs
Duration : 1 h 32 min
Bit rate : 41.9 kb/s
Count of elements : 2234
Stream size : 27.7 MiB (0%)
Title : Danish-PGS
Language : Danish
Default : No
Forced : No

Text #7
ID : 11
Format : PGS
Muxing mode : zlib
Codec ID : S_HDMV/PGS
Codec ID/Info : Picture based subtitle format used on BDs/HD-DVDs
Duration : 1 h 32 min
Bit rate : 38.9 kb/s
Count of elements : 2362
Stream size : 25.7 MiB (0%)
Title : Dutch-PGS
Language : Dutch
Default : No
Forced : No

Text #8
ID : 12
Format : PGS
Muxing mode : zlib
Codec ID : S_HDMV/PGS
Codec ID/Info : Picture based subtitle format used on BDs/HD-DVDs
Duration : 1 h 32 min
Bit rate : 42.0 kb/s
Count of elements : 3584
Stream size : 27.8 MiB (0%)
Title : Finnish-PGS
Language : Finnish
Default : No
Forced : No

Text #9
ID : 13
Format : PGS
Muxing mode : zlib
Codec ID : S_HDMV/PGS
Codec ID/Info : Picture based subtitle format used on BDs/HD-DVDs
Duration : 1 h 32 min
Bit rate : 46.3 kb/s
Count of elements : 3386
Stream size : 30.7 MiB (0%)
Title : German-PGS
Language : German
Default : No
Forced : No

Text #10
ID : 14
Format : PGS
Muxing mode : zlib
Codec ID : S_HDMV/PGS
Codec ID/Info : Picture based subtitle format used on BDs/HD-DVDs
Duration : 1 h 32 min
Bit rate : 41.6 kb/s
Count of elements : 3624
Stream size : 27.5 MiB (0%)
Title : Italian-PGS
Language : Italian
Default : No
Forced : No

Text #11
ID : 15
Format : PGS
Muxing mode : zlib
Codec ID : S_HDMV/PGS
Codec ID/Info : Picture based subtitle format used on BDs/HD-DVDs
Duration : 1 h 32 min
Bit rate : 44.0 kb/s
Count of elements : 3622
Stream size : 29.1 MiB (0%)
Title : Norwegian-PGS
Language : Norwegian
Default : No
Forced : No

Text #12
ID : 16
Format : PGS
Muxing mode : zlib
Codec ID : S_HDMV/PGS
Codec ID/Info : Picture based subtitle format used on BDs/HD-DVDs
Duration : 1 h 32 min
Bit rate : 43.0 kb/s
Count of elements : 3620
Stream size : 28.5 MiB (0%)
Title : Swedish-PGS
Language : Swedish
Default : No
Forced : No

Text #13
ID : 17
Format : PGS
Muxing mode : zlib
Codec ID : S_HDMV/PGS
Codec ID/Info : Picture based subtitle format used on BDs/HD-DVDs
Duration : 1 h 32 min
Bit rate : 43.7 kb/s
Count of elements : 3626
Stream size : 29.0 MiB (0%)
Title : Czech-PGS
Language : Czech
Default : No
Forced : No

Text #14
ID : 18
Format : PGS
Muxing mode : zlib
Codec ID : S_HDMV/PGS
Codec ID/Info : Picture based subtitle format used on BDs/HD-DVDs
Duration : 1 h 27 min
Bit rate : 531 b/s
Count of elements : 36
Stream size : 340 KiB (0%)
Title : Czech-FORCED-PGS
Language : Czech
Default : No
Forced : No

Text #15
ID : 19
Format : PGS
Muxing mode : zlib
Codec ID : S_HDMV/PGS
Codec ID/Info : Picture based subtitle format used on BDs/HD-DVDs
Duration : 1 h 32 min
Bit rate : 44.2 kb/s
Count of elements : 3588
Stream size : 29.3 MiB (0%)
Title : Hungarian-PGS
Language : Hungarian
Default : No
Forced : No

Text #16
ID : 20
Format : PGS
Muxing mode : zlib
Codec ID : S_HDMV/PGS
Codec ID/Info : Picture based subtitle format used on BDs/HD-DVDs
Duration : 1 h 32 min
Bit rate : 29.0 kb/s
Count of elements : 3626
Stream size : 19.2 MiB (0%)
Title : Korean-PGS
Language : Korean
Default : No
Forced : No

Text #17
ID : 21
Format : PGS
Muxing mode : zlib
Codec ID : S_HDMV/PGS
Codec ID/Info : Picture based subtitle format used on BDs/HD-DVDs
Duration : 1 h 33 min
Bit rate : 45.0 kb/s
Count of elements : 3976
Stream size : 30.0 MiB (0%)
Title : Korean-PGS
Language : Korean
Default : No
Forced : No

Menu
00:00:00.000 : en:Chapter 01
00:05:52.643 : en:Chapter 02
00:09:56.846 : en:Chapter 03
00:14:14.854 : en:Chapter 04
00:17:30.591 : en:Chapter 05
00:19:46.059 : en:Chapter 06
00:22:40.275 : en:Chapter 07
00:27:33.401 : en:Chapter 08
00:31:30.680 : en:Chapter 09
00:33:18.955 : en:Chapter 10
00:35:39.887 : en:Chapter 11
00:40:13.035 : en:Chapter 12
00:45:05.202 : en:Chapter 13
00:49:10.113 : en:Chapter 14
00:52:36.987 : en:Chapter 15
00:56:46.111 : en:Chapter 16
01:01:54.001 : en:Chapter 17
01:05:43.397 : en:Chapter 18
01:08:37.196 : en:Chapter 19
01:13:31.156 : en:Chapter 20
01:16:44.516 : en:Chapter 21
01:19:07.200 : en:Chapter 22
01:23:54.779 : en:Chapter 23
01:27:49.597 : en:Chapter 24

[size=13.3333px][size=13.3333px][size=13.3333px][size=13.3333px][size=13.3333px][size=13.3333px]


回复下载:





游客,如果您要查看本帖隐藏内容请回复


本帖子中包含更多资源

您需要 登录 才可以下载或查看,没有帐号?立即注册

x
回复

使用道具 举报

发表于 5 天前 | 显示全部楼层
看 黃 片:

http://9bm.me/portal.php?x=625933

看 黃 片:

http://9bm.me/portal.php?x=625933

看 黃 片:

http://9bm.me/portal.php?x=625933

看 黃 片:

http://9bm.me/portal.php?x=625933

看 黃 片:

http://9bm.me/portal.php?x=625933


看 黃 片:

http://9bm.me/portal.php?x=625933



看 黃 片:

http://9bm.me/portal.php?x=625933



看 黃 片:

http://9bm.me/portal.php?x=625933



看 黃 片:

http://9bm.me/portal.php?x=625933



看 黃 片:

http://9bm.me/portal.php?x=625933



看 黃 片:

http://9bm.me/portal.php?x=625933



看 黃 片:

http://9bm.me/portal.php?x=625933



看 黃 片:

http://9bm.me/portal.php?x=625933



看 黃 片:

http://9bm.me/portal.php?x=625933



看 黃 片:

http://9bm.me/portal.php?x=625933



看 黃 片:

http://9bm.me/portal.php?x=625933



看 黃 片:

http://9bm.me/portal.php?x=625933



看 黃 片:

http://9bm.me/portal.php?x=625933



看 黃 片:

http://9bm.me/portal.php?x=625933



看 黃 片:

http://9bm.me/portal.php?x=625933



看 黃 片:

http://9bm.me/portal.php?x=625933



看 黃 片:

http://9bm.me/portal.php?x=625933



看 黃 片:

http://9bm.me/portal.php?x=625933



看 黃 片:

http://9bm.me/portal.php?x=625933



看 黃 片:

http://9bm.me/portal.php?x=625933



看 黃 片:

http://9bm.me/portal.php?x=625933



看 黃 片:

http://9bm.me/portal.php?x=625933



看 黃 片:

http://9bm.me/portal.php?x=625933



看 黃 片:

http://9bm.me/portal.php?x=625933



看 黃 片:

http://9bm.me/portal.php?x=625933



看 黃 片:

http://9bm.me/portal.php?x=625933



看 黃 片:

http://9bm.me/portal.php?x=625933



看 黃 片:

http://9bm.me/portal.php?x=625933

看 黃 片:

http://9bm.me/portal.php?x=625933



看 黃 片:

http://9bm.me/portal.php?x=625933



看 黃 片:

http://9bm.me/portal.php?x=625933



看 黃 片:

http://9bm.me/portal.php?x=625933



看 黃 片:

http://9bm.me/portal.php?x=625933

看 黃 片:

http://9bm.me/portal.php?x=625933



看 黃 片:

http://9bm.me/portal.php?x=625933



看 黃 片:

http://9bm.me/portal.php?x=625933



看 黃 片:

http://9bm.me/portal.php?x=625933



看 黃 片:

http://9bm.me/portal.php?x=625933



看 黃 片:

http://9bm.me/portal.php?x=625933



看 黃 片:

http://9bm.me/portal.php?x=625933



看 黃 片:

http://9bm.me/portal.php?x=625933



看 黃 片:

http://9bm.me/portal.php?x=625933



看 黃 片:

http://9bm.me/portal.php?x=625933



看 黃 片:

http://9bm.me/portal.php?x=625933



看 黃 片:

http://9bm.me/portal.php?x=625933



看 黃 片:

http://9bm.me/portal.php?x=625933



看 黃 片:

http://9bm.me/portal.php?x=625933



看 黃 片:

http://9bm.me/portal.php?x=625933



看 黃 片:

http://9bm.me/portal.php?x=625933



看 黃 片:

http://9bm.me/portal.php?x=625933



看 黃 片:

http://9bm.me/portal.php?x=625933



看 黃 片:

http://9bm.me/portal.php?x=625933

回复 支持 1 反对 0

使用道具 举报

发表于 5 天前 | 显示全部楼层
谢谢楼主分享~





......
回复 支持 反对

使用道具 举报

发表于 5 天前 | 显示全部楼层
uber司机,感觉像那个的士电影
回复 支持 反对

使用道具 举报

发表于 5 天前 | 显示全部楼层
谢谢老大。看一看回一回顶一顶。
回复 支持 反对

使用道具 举报

发表于 5 天前 | 显示全部楼层
谢谢楼主分享
回复 支持 反对

使用道具 举报

发表于 5 天前 | 显示全部楼层
好电影,谢谢楼主分享
回复 支持 反对

使用道具 举报

发表于 5 天前 | 显示全部楼层
有组织的感觉真好,请收下我的膝盖。感谢楼主发布佳片。
回复 支持 反对

使用道具 举报

发表于 5 天前 | 显示全部楼层
谢谢楼主分享
回复 支持 反对

使用道具 举报

发表于 5 天前 | 显示全部楼层
谢谢楼主无私奉献
回复 支持 反对

使用道具 举报

发表于 5 天前 | 显示全部楼层
有组织的感觉真好,请收下我的膝盖。谢谢楼主分享资源。

回复 支持 反对

使用道具 举报

您需要登录后才可以回帖 登录 | 立即注册

本版积分规则

快速回复 返回顶部 返回列表