CHD高清论坛

 找回密码
 立即注册

QQ登录

只需一步,快速开始

搜索
热搜: 活动 交友 discuz
查看: 2648|回复: 192

[剧情片] 锅盖头4:回归法制.Jarhead.Law.of.Return.2019.1080p.AMZN.WEBRip.DDP5.1.x264-iKA

  [复制链接]
发表于 7 天前 | 显示全部楼层 |阅读模式
天下第一棋牌注册送1111金币


[size=13.3333px]◎译  名 锅盖头4:回归法制
[size=13.3333px]◎片  名 Jarhead: Law of Return
[size=13.3333px]◎年  代 2019
[size=13.3333px]◎产  地 美国
[size=13.3333px]◎类  别 剧情 / 动作 / 战争
[size=13.3333px]◎语  言 英语
[size=13.3333px]◎上映日期 2019-10-01(美国)
[size=13.3333px]◎IMDb链接 http://www.imdb.com/title/tt10767720
[size=13.3333px]◎豆瓣评分 0/10 from 0 users
[size=13.3333px]◎豆瓣链接 https://movie.douban.com/subject/34785746/
[size=13.3333px]◎片  长 103分钟
[size=13.3333px]◎导  演 唐·迈克尔·保罗 Don Michael Paul
[size=13.3333px]◎编  剧 唐·迈克尔·保罗 Don Michael Paul
[size=13.3333px]◎主  演 戴文·萨瓦 Devon Sawa
[size=13.3333px]      Yael Eitan
[size=13.3333px]      阿摩司·塔玛姆 Amos Tamam
[size=13.3333px]      阿莫里·诺拉斯科 Amaury Nolasco
[size=13.3333px]      杰夫·皮埃尔 Jeff Pierre


[size=13.3333px]◎标  签 极度傻逼片

[size=13.3333px]◎简  介

[size=13.3333px]  Major Ronan Jackson (Devon Sawa), an accomplished fighter pilot for the Israel Defense Forces and son of a U.S. Senator (Robert Patrick), is shot down while flying through Syrian airspace. After miraculously surviving the crash, Jackson is taken captive by a group of Hezbollah militiamen. A gripping and powerful story packed with hard-hitting action, Jarhead: Law of Return follows a squad of Marines, led by Sergeant Dave Flores (Amaury Nolasco), as they risk their own lives in the hopes of saving an ally they've never met.
Video
ID : 1
Format : AVC
Format/Info : Advanced Video Codec
Format profile : High@L4
Format settings : CABAC / 4 Ref Frames
Format settings, CABAC : Yes
Format settings, Reference frames : 4 frames
Codec ID : V_MPEG4/ISO/AVC
Duration : 1 h 42 min
Bit rate mode : Constant
Bit rate : 8 959 kb/s
Nominal bit rate : 10 000 kb/s
Width : 1 920 pixels
Height : 1 080 pixels
Display aspect ratio : 16:9
Frame rate mode : Constant
Frame rate : 23.976 (24000/1001) FPS
Color space : YUV
Chroma subsampling : 4:2:0
Bit depth : 8 bits
Scan type : Progressive
Bits/(Pixel*Frame) : 0.180
Stream size : 6.44 GiB (93%)
Default : Yes
Forced : No
Color range : Limited
Color primaries : BT.709
Transfer characteristics : BT.709
Matrix coefficients : BT.709

Audio
ID : 2
Format : E-AC-3
Format/Info : Enhanced AC-3
Commercial name : Dolby Digital Plus
Codec ID : A_EAC3
Duration : 1 h 42 min
Bit rate mode : Constant
Bit rate : 640 kb/s
Channel(s) : 6 channels
Channel layout : L R C LFE Ls Rs
Sampling rate : 48.0 kHz
Frame rate : 31.250 FPS (1536 SPF)
Compression mode : Lossy
Stream size : 471 MiB (7%)
Language : English
Service kind : Complete Main
Default : Yes
Forced : No

Text
ID : 3
Format : UTF-8
Codec ID : S_TEXT/UTF8
Codec ID/Info : UTF-8 Plain Text
Duration : 1 h 42 min
Bit rate : 52 b/s
Count of elements : 1180
Stream size : 39.5 KiB (0%)
Language : English
Default : No
Forced : No

[size=13.3333px][size=13.3333px][size=13.3333px]


回复下载:





游客,如果您要查看本帖隐藏内容请回复


本帖子中包含更多资源

您需要 登录 才可以下载或查看,没有帐号?立即注册

x
回复

使用道具 举报

发表于 7 天前 | 显示全部楼层
美国大兵的电影,看看热闹吧。
回复 支持 反对

使用道具 举报

发表于 7 天前 | 显示全部楼层
感谢楼主分享





......
回复 支持 反对

使用道具 举报

发表于 7 天前 | 显示全部楼层
感谢楼主分享
回复 支持 反对

使用道具 举报

发表于 7 天前 | 显示全部楼层
啊啊啊啊啊啊啊啊啊啊啊啊啊啊啊啊啊啊啊啊啊啊啊啊啊啊
回复 支持 反对

使用道具 举报

发表于 7 天前 | 显示全部楼层
啊啊啊啊啊啊啊啊啊啊啊啊啊啊啊啊啊啊啊啊啊
回复 支持 反对

使用道具 举报

发表于 7 天前 | 显示全部楼层
感谢伟大无私的分享
回复 支持 反对

使用道具 举报

发表于 7 天前 | 显示全部楼层
谢谢楼主分享
回复 支持 反对

使用道具 举报

发表于 7 天前 | 显示全部楼层
感谢伟大无私的分享
回复 支持 反对

使用道具 举报

发表于 7 天前 | 显示全部楼层
非常喜欢战争片
回复 支持 反对

使用道具 举报

您需要登录后才可以回帖 登录 | 立即注册

本版积分规则

快速回复 返回顶部 返回列表