CHD高清论坛

 找回密码
 立即注册

QQ登录

只需一步,快速开始

搜索
热搜: 活动 交友 discuz
查看: 2208|回复: 118

[剧情片] 永远忠诚.Semper.Fi.2019.1080p.AMZN.WEBRip.DDP5.1.x264-NTG

  [复制链接]
发表于 2019-10-5 09:32:57 | 显示全部楼层 |阅读模式
天下第一棋牌注册送1111金币


[size=13.3333px]◎译  名 永远忠诚
[size=13.3333px]◎片  名 Semper Fi
[size=13.3333px]◎年  代 2019
[size=13.3333px]◎产  地 英国
[size=13.3333px]◎类  别 剧情
[size=13.3333px]◎语  言 英语
[size=13.3333px]◎IMDb链接 http://www.imdb.com/title/tt7042838
[size=13.3333px]◎豆瓣评分 0/10 from 0 users
[size=13.3333px]◎豆瓣链接 https://movie.douban.com/subject/27036741/
[size=13.3333px]◎导  演 亨利·亚历克斯·鲁宾 Henry Alex Rubin
[size=13.3333px]◎编  剧 亨利·亚历克斯·鲁宾 Henry Alex Rubin / Sean Mullin
[size=13.3333px]◎主  演 山姆·克拉弗林 Sam Claflin
[size=13.3333px]      纳特·沃尔夫 Nat Wolff
[size=13.3333px]      杰·科特尼 Jai Courtney


[size=13.3333px]◎标  签 SamClaflin | 2019 | 电影 | 剧情 | HenryAlexRubin | Detective/Crime | LeightonMeester

[size=13.3333px]◎简  介

[size=13.3333px]  纳特·沃尔夫将加盟由山姆·克拉弗林主演的新片[永远忠诚](Semper Fi,暂译)。影片将会由亨利·亚历克斯·鲁宾([断线])执导。电影讲述身为海军陆战队预备役中士霍珀(山姆饰),阻止了因意外害死人而想要逃跑的弟弟(纳特饰)。当弟弟终审上诉被驳回,他决定不顾一切代价救出弟弟。
Video
ID : 1
Format : AVC
Format/Info : Advanced Video Codec
Format profile : High@L4
Format settings : CABAC / 4 Ref Frames
Format settings, CABAC : Yes
Format settings, Reference frames : 4 frames
Codec ID : V_MPEG4/ISO/AVC
Duration : 1 h 39 min
Bit rate mode : Constant
Bit rate : 7 688 kb/s
Nominal bit rate : 10 000 kb/s
Width : 1 920 pixels
Height : 800 pixels
Display aspect ratio : 2.40:1
Frame rate mode : Constant
Frame rate : 23.976 (24000/1001) FPS
Color space : YUV
Chroma subsampling : 4:2:0
Bit depth : 8 bits
Scan type : Progressive
Bits/(Pixel*Frame) : 0.209
Stream size : 5.36 GiB (92%)
Default : Yes
Forced : No
Color range : Limited
Color primaries : BT.709
Transfer characteristics : BT.709
Matrix coefficients : BT.709

Audio
ID : 2
Format : E-AC-3
Format/Info : Enhanced AC-3
Commercial name : Dolby Digital Plus
Codec ID : A_EAC3
Duration : 1 h 39 min
Bit rate mode : Constant
Bit rate : 640 kb/s
Channel(s) : 6 channels
Channel layout : L R C LFE Ls Rs
Sampling rate : 48.0 kHz
Frame rate : 31.250 FPS (1536 SPF)
Compression mode : Lossy
Stream size : 457 MiB (8%)
Language : English
Service kind : Complete Main
Default : Yes
Forced : No

Text #1
ID : 3
Format : UTF-8
Codec ID : S_TEXT/UTF8
Codec ID/Info : UTF-8 Plain Text
Duration : 1 h 32 min
Bit rate : 66 b/s
Count of elements : 1536
Stream size : 45.6 KiB (0%)
Language : English
Default : No
Forced : No

Text #2
ID : 4
Format : UTF-8
Codec ID : S_TEXT/UTF8
Codec ID/Info : UTF-8 Plain Text
Duration : 1 h 32 min
Bit rate : 77 b/s
Count of elements : 1768
Stream size : 53.1 KiB (0%)
Title : SDH
Language : English
Default : No
Forced : No

[size=13.3333px][size=13.3333px][size=13.3333px]


回复下载:





游客,如果您要查看本帖隐藏内容请回复


本帖子中包含更多资源

您需要 登录 才可以下载或查看,没有帐号?立即注册

x
回复

使用道具 举报

发表于 2019-10-5 09:35:27 | 显示全部楼层

感谢分享,辛苦了!
回复 支持 反对

使用道具 举报

发表于 2019-10-5 09:37:16 | 显示全部楼层
感谢楼主分享:):):):):):):):):):):):):):)





......
回复 支持 反对

使用道具 举报

发表于 2019-10-5 09:40:05 | 显示全部楼层
thanks for your sharing.
回复 支持 反对

使用道具 举报

发表于 2019-10-5 09:42:51 | 显示全部楼层
谢谢楼主分享
回复 支持 反对

使用道具 举报

发表于 2019-10-5 09:56:13 | 显示全部楼层
谢楼主分享。。。。。。。。。。。。。。。。。。。。。。。。。
回复 支持 反对

使用道具 举报

发表于 2019-10-5 10:06:15 | 显示全部楼层

谢谢楼主分享
回复 支持 反对

使用道具 举报

发表于 2019-10-5 10:23:02 | 显示全部楼层
感谢伟大无私的分享
回复 支持 反对

使用道具 举报

发表于 2019-10-5 11:32:04 | 显示全部楼层
thanks for your sharing.
回复 支持 反对

使用道具 举报

发表于 2019-10-5 11:39:18 | 显示全部楼层

thanks for your sharing.
回复 支持 反对

使用道具 举报

您需要登录后才可以回帖 登录 | 立即注册

本版积分规则

快速回复 返回顶部 返回列表