CHD高清论坛

 找回密码
 立即注册

QQ登录

只需一步,快速开始

搜索
热搜: 活动 交友 discuz
查看: 2621|回复: 160

[恐怖片] 复仇女神.The.Furies.2019.1080p.AMZN.WEBRip.DD5.1.x264-NTG

  [复制链接]
发表于 2019-10-5 09:15:10 | 显示全部楼层 |阅读模式
天下第一棋牌注册送1111金币


[size=13.3333px]◎译  名 复仇女神 / Killer Instinct
[size=13.3333px]◎片  名 The Furies
[size=13.3333px]◎年  代 2019
[size=13.3333px]◎产  地 澳大利亚 Australia
[size=13.3333px]◎类  别 恐怖
[size=13.3333px]◎IMDb评分 5.9/10 from 66 users
[size=13.3333px]◎IMDb链接 http://www.imdb.com/title/tt8228172
[size=13.3333px]◎豆瓣评分 0/10 from 0 users
[size=13.3333px]◎豆瓣链接 https://movie.douban.com/subject/30368050/
[size=13.3333px]◎导  演 Tony D'Aquino
[size=13.3333px]◎编  剧 Tony D'Aquino
[size=13.3333px]◎主  演 艾尔利·多兹 Airlie Dodds
[size=13.3333px]      Linda Ngo
[size=13.3333px]      Taylor Ferguson


[size=13.3333px]◎标  签 恐怖 | 澳大利亚电影

[size=13.3333px]◎简  介

[size=13.3333px]  暂无相关剧情介绍
Video
ID : 1
Format : AVC
Format/Info : Advanced Video Codec
Format profile : High@L4
Format settings : CABAC / 4 Ref Frames
Format settings, CABAC : Yes
Format settings, Reference frames : 4 frames
Format settings, GOP : M=4, N=48
Codec ID : V_MPEG4/ISO/AVC
Duration : 1 h 22 min
Bit rate mode : Constant
Bit rate : 7 996 kb/s
Nominal bit rate : 10 000 kb/s
Width : 1 920 pixels
Height : 1 080 pixels
Display aspect ratio : 16:9
Frame rate mode : Constant
Frame rate : 23.976 (24000/1001) FPS
Color space : YUV
Chroma subsampling : 4:2:0
Bit depth : 8 bits
Scan type : Progressive
Bits/(Pixel*Frame) : 0.161
Stream size : 4.61 GiB (95%)
Default : Yes
Forced : No
Color range : Limited
Color primaries : BT.709
Transfer characteristics : BT.709
Matrix coefficients : BT.709

Audio
ID : 2
Format : AC-3
Format/Info : Audio Coding 3
Commercial name : Dolby Digital
Codec ID : A_AC3
Duration : 1 h 22 min
Bit rate mode : Constant
Bit rate : 384 kb/s
Channel(s) : 6 channels
Channel layout : L R C LFE Ls Rs
Sampling rate : 48.0 kHz
Frame rate : 31.250 FPS (1536 SPF)
Bit depth : 16 bits
Compression mode : Lossy
Delay relative to video : 417 ms
Stream size : 227 MiB (5%)
Language : English
Service kind : Complete Main
Default : Yes
Forced : No

Text #1
ID : 3
Format : UTF-8
Codec ID : S_TEXT/UTF8
Codec ID/Info : UTF-8 Plain Text
Duration : 1 h 22 min
Bit rate : 25 b/s
Count of elements : 1043
Stream size : 15.5 KiB (0%)
Language : English
Default : No
Forced : No

Text #2
ID : 4
Format : UTF-8
Codec ID : S_TEXT/UTF8
Codec ID/Info : UTF-8 Plain Text
Duration : 1 h 22 min
Bit rate : 34 b/s
Count of elements : 1314
Stream size : 20.6 KiB (0%)
Title : SDH
Language : English
Default : No
Forced : No

[size=13.3333px][size=13.3333px][size=13.3333px]


回复下载:





游客,如果您要查看本帖隐藏内容请回复


本帖子中包含更多资源

您需要 登录 才可以下载或查看,没有帐号?立即注册

x
回复

使用道具 举报

发表于 2019-10-5 09:19:22 | 显示全部楼层
谢谢楼主分享





......
回复 支持 反对

使用道具 举报

发表于 2019-10-5 09:23:49 | 显示全部楼层
谢谢楼主,谢谢
回复 支持 反对

使用道具 举报

发表于 2019-10-5 09:30:16 | 显示全部楼层
感谢分享,辛苦了!
回复 支持 反对

使用道具 举报

发表于 2019-10-5 09:35:10 | 显示全部楼层

感谢分享!!感谢楼主分享!!
回复 支持 反对

使用道具 举报

发表于 2019-10-5 09:41:26 | 显示全部楼层
特别感谢您,找了很久资源
回复 支持 反对

使用道具 举报

发表于 2019-10-5 09:41:27 | 显示全部楼层
thanks for your sharing.
回复 支持 反对

使用道具 举报

发表于 2019-10-5 09:43:24 | 显示全部楼层
谢谢楼主分享

回复 支持 反对

使用道具 举报

发表于 2019-10-5 09:52:17 | 显示全部楼层

谢谢楼主分享
回复 支持 反对

使用道具 举报

发表于 2019-10-5 09:56:39 | 显示全部楼层

谢谢楼主分享
回复 支持 反对

使用道具 举报

您需要登录后才可以回帖 登录 | 立即注册

本版积分规则

快速回复 返回顶部 返回列表