CHD高清论坛

 找回密码
 立即注册

QQ登录

只需一步,快速开始

搜索
热搜: 活动 交友 discuz
查看: 2321|回复: 189

[动作片] 流氓战争.Rogue.Warfare.2019.1080p.WEB-DL.DD5.1.H264-FGT

  [复制链接]
发表于 2019-10-5 09:10:06 | 显示全部楼层 |阅读模式
天下第一棋牌注册送1111金币


[size=13.3333px]◎译  名 流氓战争
[size=13.3333px]◎片  名 Rogue Warfare
[size=13.3333px]◎年  代 2017
[size=13.3333px]◎产  地 美国
[size=13.3333px]◎类  别 动作
[size=13.3333px]◎语  言 英语
[size=13.3333px]◎IMDb链接 http://www.imdb.com/title/tt5266668
[size=13.3333px]◎豆瓣评分 0/10 from 0 users
[size=13.3333px]◎豆瓣链接 https://movie.douban.com/subject/26992379/
[size=13.3333px]◎导  演 麦克·冈瑟 Mike Gunther
[size=13.3333px]◎编  剧 Sean Day Michael / Andrew Emilio DeCesare
[size=13.3333px]◎主  演 姜成镐 Sung Kang
[size=13.3333px]      Kenny Sheard
[size=13.3333px]      Mike McKee


[size=13.3333px]◎标  签 动作

[size=13.3333px]◎简  介

[size=13.3333px]  A group of military elite from the U.S., Russia, UK, China and France join forces to fight an elite underground terrorist network.
Video
ID : 1
Format : AVC
Format/Info : Advanced Video Codec
Format profile : High@L4
Format settings : CABAC / 5 Ref Frames
Format settings, CABAC : Yes
Format settings, Reference frames : 5 frames
Codec ID : V_MPEG4/ISO/AVC
Duration : 1 h 42 min
Bit rate : 4 516 kb/s
Width : 1 916 pixels
Height : 800 pixels
Display aspect ratio : 2.40:1
Frame rate mode : Constant
Frame rate : 23.976 FPS
Color space : YUV
Chroma subsampling : 4:2:0
Bit depth : 8 bits
Scan type : Progressive
Bits/(Pixel*Frame) : 0.123
Stream size : 3.25 GiB (92%)
Title : Rogue.Warfare.2019.1080p.WEB-DL.DD5.1.H264-FGT
Language : English
Default : Yes
Forced : No
Color range : Limited
Color primaries : BT.709
Transfer characteristics : BT.709
Matrix coefficients : BT.709

Audio
ID : 2
Format : AC-3
Format/Info : Audio Coding 3
Commercial name : Dolby Digital
Codec ID : A_AC3
Duration : 1 h 42 min
Bit rate mode : Constant
Bit rate : 384 kb/s
Channel(s) : 6 channels
Channel layout : L R C LFE Ls Rs
Sampling rate : 48.0 kHz
Frame rate : 31.250 FPS (1536 SPF)
Bit depth : 16 bits
Compression mode : Lossy
Stream size : 283 MiB (8%)
Title : Rogue.Warfare.2019.1080p.WEB-DL.DD5.1.H264-FGT
Language : English
Service kind : Complete Main
Default : Yes
Forced : No

Text
ID : 3
Format : UTF-8
Codec ID : S_TEXT/UTF8
Codec ID/Info : UTF-8 Plain Text
Duration : 1 h 31 min
Bit rate : 62 b/s
Count of elements : 1131
Stream size : 41.6 KiB (0%)
Language : English
Default : Yes
Forced : No

Menu
00:00:00.000 : en:Chapter 1
00:07:10.055 : en:Chapter 2
00:13:10.999 : en:Chapter 3
00:19:36.592 : en:Chapter 4
00:27:00.827 : en:Chapter 5
00:32:08.175 : en:Chapter 6
00:38:58.710 : en:Chapter 7
00:46:29.911 : en:Chapter 8
00:55:32.494 : en:Chapter 9
01:00:20.907 : en:Chapter 10
01:06:10.423 : en:Chapter 11
01:13:21.978 : en:Chapter 12
01:20:47.172 : en:Chapter 13
01:27:30.200 : en:Chapter 14
01:34:07.346 : en:Chapter 15

[size=13.3333px][size=13.3333px][size=13.3333px]


回复下载:





游客,如果您要查看本帖隐藏内容请回复


本帖子中包含更多资源

您需要 登录 才可以下载或查看,没有帐号?立即注册

x
回复

使用道具 举报

发表于 2019-10-5 09:12:29 | 显示全部楼层
特别感谢您,找了很久资源
回复 支持 反对

使用道具 举报

发表于 2019-10-5 09:13:33 | 显示全部楼层
谢谢楼主分享





......
回复 支持 反对

使用道具 举报

发表于 2019-10-5 09:27:37 | 显示全部楼层
感谢楼主,感谢
回复 支持 反对

使用道具 举报

发表于 2019-10-5 09:32:18 | 显示全部楼层
感谢分享,辛苦了!
回复 支持 反对

使用道具 举报

发表于 2019-10-5 09:38:15 | 显示全部楼层

支持楼主分享资源
回复 支持 反对

使用道具 举报

发表于 2019-10-5 09:40:20 | 显示全部楼层
特别感谢您,找了很久资源
回复 支持 反对

使用道具 举报

发表于 2019-10-5 09:43:28 | 显示全部楼层
thanks for your sharing.
回复 支持 反对

使用道具 举报

发表于 2019-10-5 09:45:48 | 显示全部楼层
谢谢楼主分享

回复 支持 反对

使用道具 举报

您需要登录后才可以回帖 登录 | 立即注册

本版积分规则

快速回复 返回顶部 返回列表