CHD高清论坛

 找回密码
 立即注册

QQ登录

只需一步,快速开始

搜索
热搜: 活动 交友 discuz
查看: 2675|回复: 203

[动作片] 恶人传.The.Gangster.The.Cop.The.Devil.2019.KOREAN.1080p.WEBRip.x264-VXT

  [复制链接]
发表于 2019-10-3 08:07:33 | 显示全部楼层 |阅读模式
天下第一棋牌注册送1111金币


◎译  名 恶人传 / The Gangster, The Cop, The Devil / 恶霸?魔警?杀人狂(港) / 极恶对决(台)
◎片  名 ???
◎年  代 2019
◎产  地 韩国
◎类  别 剧情 / 动作 / 犯罪
◎语  言 韩语
◎上映日期 2019-05-15(韩国)
◎IMDb评分 6.9/10 from 1549 users
◎IMDb链接 http://www.imdb.com/title/tt10208198
◎豆瓣评分 7.7/10 from 122614 users
◎豆瓣链接 https://movie.douban.com/subject/30211551/
◎片  长 109分钟
◎导  演 李元泰 Won-tae Lee
◎编  剧 李元泰 Won-tae Lee
◎主  演 马东锡 Tong-Seok Ma
      金武烈 Moo-yeol Kim
      金成圭 Seong-gyoo Kim
      刘承睦 Yoo Seung-Mok
      崔民哲 Min-cheol Choi
      金胤成 Kim Yoon-seong
      许栋元 Heo Dong-won
      吴熙俊 Hee-joon Oh
      杨志洙 Ji-soo Yang
      金桀 Kim Kyoul
      李恩泉 Eun-saem Lee
      刘在明 Jae-myung Yoo


◎标  签 韩国 | 犯罪 | 暴力 | 动作 | 警匪 | 人性 | 悬疑 | 2019

◎简  介

  罪犯头目张东洙(Don Lee)被一名神秘莫测的连环杀手暴力袭击之后幸存,与当地警探郑泰硕(Kim Moo Yul)形成了一种奇妙的搭档关系,联手捕捉被称为“K”的虐待狂杀手”。
Video
ID : 1
Format : AVC
Format/Info : Advanced Video Codec
Format profile : High@L4.1
Format settings : CABAC / 4 Ref Frames
Format settings, CABAC : Yes
Format settings, Reference frames : 4 frames
Codec ID : avc1
Codec ID/Info : Advanced Video Coding
Duration : 1 h 49 min
Bit rate : 2 500 kb/s
Width : 1 920 pixels
Height : 802 pixels
Display aspect ratio : 2.40:1
Frame rate mode : Constant
Frame rate : 24.000 FPS
Color space : YUV
Chroma subsampling : 4:2:0
Bit depth : 8 bits
Scan type : Progressive
Bits/(Pixel*Frame) : 0.068
Stream size : 1.92 GiB (92%)
Writing library : x264 core 152 r2851M ba24899
Encoding settings : cabac=1 / ref=4 / deblock=1:-1:-1 / analyse=0x3:0x113 / me=umh / subme=9 / psy=1 / psy_rd=1.00:0.15 / mixed_ref=1 / me_range=24 / chroma_me=1 / trellis=2 / 8x8dct=1 / cqm=0 / deadzone=21,11 / fast_pskip=1 / chroma_qp_offset=-3 / threads=32 / lookahead_threads=4 / sliced_threads=0 / nr=0 / decimate=1 / interlaced=0 / bluray_compat=0 / constrained_intra=0 / bframes=3 / b_pyramid=2 / b_adapt=2 / b_bias=0 / direct=3 / weightb=1 / open_gop=0 / weightp=2 / keyint=250 / keyint_min=25 / scenecut=40 / intra_refresh=0 / rc_lookahead=50 / rc=2pass / mbtree=1 / bitrate=2500 / ratetol=1.0 / qcomp=0.60 / qpmin=0 / qpmax=69 / qpstep=4 / cplxblur=20.0 / qblur=0.5 / vbv_maxrate=31250 / vbv_bufsize=31250 / nal_hrd=none / filler=0 / ip_ratio=1.40 / aq=3:1.00
Encoded date : UTC 2019-10-02 20:14:22
Tagged date : UTC 2019-10-02 20:14:22
Codec configuration box : avcC

Audio
ID : 2
Format : AAC LC
Format/Info : Advanced Audio Codec Low Complexity
Codec ID : mp4a-40-2
Duration : 1 h 49 min
Duration_LastFrame : -11 ms
Bit rate mode : Constant
Bit rate : 224 kb/s
Channel(s) : 6 channels
Channel layout : C L R Ls Rs LFE
Sampling rate : 48.0 kHz
Frame rate : 46.875 FPS (1024 SPF)
Compression mode : Lossy
Stream size : 176 MiB (8%)
Language : Korean
Default : Yes
Alternate group : 1
Encoded date : UTC 2019-10-02 20:14:22
Tagged date : UTC 2019-10-02 20:14:22




回复下载:





游客,如果您要查看本帖隐藏内容请回复


本帖子中包含更多资源

您需要 登录 才可以下载或查看,没有帐号?立即注册

x
回复

使用道具 举报

发表于 2019-10-3 08:08:09 | 显示全部楼层
感谢分享,辛苦了!
回复 支持 反对

使用道具 举报

发表于 2019-10-3 08:14:41 | 显示全部楼层
感谢分享!!感谢楼主分享!!





......
回复 支持 反对

使用道具 举报

发表于 2019-10-3 08:57:46 | 显示全部楼层
感谢楼主分享!!
回复 支持 反对

使用道具 举报

发表于 2019-10-3 09:18:34 | 显示全部楼层
谢谢楼主的无私分享。
回复 支持 反对

使用道具 举报

发表于 2019-10-3 09:21:36 | 显示全部楼层
先谢谢分享
回复 支持 反对

使用道具 举报

发表于 2019-10-3 09:33:00 | 显示全部楼层
感谢楼主的分享啊
回复 支持 反对

使用道具 举报

发表于 2019-10-3 09:49:13 | 显示全部楼层
感谢楼主分享!!
回复 支持 反对

使用道具 举报

发表于 2019-10-3 09:57:47 | 显示全部楼层
感谢楼主分享!!
回复 支持 反对

使用道具 举报

发表于 2019-10-3 10:23:07 | 显示全部楼层
谢谢楼主分享
回复 支持 反对

使用道具 举报

您需要登录后才可以回帖 登录 | 立即注册

本版积分规则

快速回复 返回顶部 返回列表