CHD高清论坛

 找回密码
 立即注册

QQ登录

只需一步,快速开始

搜索
热搜: 活动 交友 discuz
查看: 815|回复: 136

[惊悚片] 极端邪恶/极度邪恶.2019.1080p.BluRay.x264-VETO

  [复制链接]
发表于 2019-7-11 09:34:58 | 显示全部楼层 |阅读模式


◎译  名 极端邪恶 / 极度邪恶 / 极恶人魔(台) / 超级变态:我的迷人男友(港)
◎片  名 Extremely Wicked, Shockingly Evil and Vile
◎年  代 2019
◎产  地 美国
◎类  别 惊悚
◎语  言 英语
◎上映日期 2019-01-26(圣丹斯电影节)
◎IMDb评分 6.7/10 from 43471 users
◎IMDb链接 http://www.imdb.com/title/tt2481498
◎豆瓣评分 6.6/10 from 2781 users
◎豆瓣链接 https://movie.douban.com/subject/24325918/
◎片  长 108分钟(圣丹斯电影节)
◎导  演 乔·伯灵格 Joe Berlinger
◎编  剧 伊丽莎白·肯德尔 Elizabeth Kendall / 迈克尔·韦 Michael Werwie
◎主  演 莉莉·柯林斯 Lily Collins
      扎克·埃夫隆 Zac Efron
      约翰·马尔科维奇 John Malkovich
      吉姆·帕森斯 Jim Parsons
      安吉拉·萨拉弗安 Angela Sarafyan
      西德尼·沃尔默 Sydney Vollmer
      梅西·卡莫西诺 Macie Carmosino
      艾娃·因曼 Ava Inman
      摩根·派尔 Morgan Pyle
      詹姆斯·海特菲尔德 James Hetfield
      理查德·K·琼斯 Richard K. Jones
      贾斯廷·因曼 Justin Inman
      格蕾丝·维多利亚·考克斯 Grace Victoria Cox
      杰弗里·多诺万 Jeffrey Donovan
      迪伦·贝克 Dylan Baker
      卡雅·斯考达里奥 Kaya Scodelario
      海利·乔·奥斯蒙 Haley Joel Osment
      特里·金尼 Terry Kinney
      肯·斯特伦克 Ken Strunk
      乔·伯灵格 Joe Berlinger
      布兰登·特罗斯特 Brandon Trost
      布莱恩·格拉格提 Brian Geraghty


◎标  签 犯罪 | 美国 | 传记 | 惊悚 | 杀手 | 2019 | Netflix | 真实事件改编

◎简  介

  故事发生在1969年,Ted Bundy是一名出奇英俊,聪明,富有魅力又深情的青年,他的优秀令为人谨慎的单身妈妈Liz Kloepfer无法阻挡。对于她来说,Ted跟她是天作之合,很快她就陷入了对这名出色年轻人的爱情中。他们的结合描画了美满幸福的家庭,这对小情侣似乎有美 好的未来在等着他们——直到突如其来的变故将他们拆散。Ted因一系列可怕的谋杀指控被捕入狱,随着证据一项项浮出水面,Liz原本对爱人的担心转为偏执与猜疑,她开始怀疑同床共枕的Ted是否正如指控所说,是一个变态杀人狂?
此片讲述了有史以来最臭名昭著的连环杀手之一Ted Bundy的故事。扮演Liz的Lily Collins奉献了精彩的表演,而Zac Efron作为Ted Bundy的表演可以重新定义他的演艺生涯。知名电影人Joe Berlinger以他的真实犯罪纪录片而闻名,也是将这个邪恶的真实故事搬上银幕的最佳人选。

Video
ID : 1
Format : AVC
Format/Info : Advanced Video Codec
Format profile : High@L4.1
Format settings : CABAC / 5 Ref Frames
Format settings, CABAC : Yes
Format settings, ReFrames : 5 frames
Codec ID : V_MPEG4/ISO/AVC
Duration : 1 h 50 min
Bit rate : 8 413 kb/s
Width : 1 920 pixels
Height : 808 pixels
Display aspect ratio : 2.40:1
Frame rate mode : Constant
Frame rate : 23.976 (24000/1001) FPS
Color space : YUV
Chroma subsampling : 4:2:0
Bit depth : 8 bits
Scan type : Progressive
Bits/(Pixel*Frame) : 0.226
Stream size : 6.48 GiB (85%)
Writing library : x264 core 157 r2969 d4099dd
Encoding settings : cabac=1 / ref=5 / deblock=1:-1:-1 / analyse=0x3:0x133 / me=umh / subme=8 / psy=1 / psy_rd=1.00:0.15 / mixed_ref=1 / me_range=16 / chroma_me=1 / trellis=1 / 8x8dct=1 / cqm=0 / deadzone=21,11 / fast_pskip=0 / chroma_qp_offset=-4 / threads=24 / lookahead_threads=4 / sliced_threads=0 / nr=0 / decimate=1 / interlaced=0 / bluray_compat=0 / constrained_intra=0 / bframes=3 / b_pyramid=2 / b_adapt=2 / b_bias=0 / direct=3 / weightb=1 / open_gop=0 / weightp=2 / keyint=240 / keyint_min=23 / scenecut=40 / intra_refresh=0 / rc_lookahead=50 / rc=2pass / mbtree=1 / bitrate=8413 / ratetol=1.0 / qcomp=0.60 / qpmin=10 / qpmax=69 / qpstep=4 / cplxblur=20.0 / qblur=0.5 / ip_ratio=1.40 / aq=1:1.00
Language : English
Default : Yes
Forced : No

Audio
ID : 2
Format : DTS
Format/Info : Digital Theater Systems
Codec ID : A_DTS
Duration : 1 h 50 min
Bit rate mode : Constant
Bit rate : 1 509 kb/s
Channel(s) : 6 channels
Channel layout : C L R Ls Rs LFE
Sampling rate : 48.0 kHz
Frame rate : 93.750 FPS (512 SPF)
Bit depth : 24 bits
Compression mode : Lossy
Stream size : 1.16 GiB (15%)
Language : English
Default : Yes
Forced : No

Menu
00:00:00.000 : en:00:00:00.000
00:07:39.626 : en:00:07:39.626
00:15:31.681 : en:00:15:31.681
00:22:05.407 : en:00:22:05.407
00:29:57.587 : en:00:29:57.587
00:36:14.089 : en:00:36:14.089
00:44:34.922 : en:00:44:34.922
00:52:50.167 : en:00:52:50.167
01:00:27.624 : en:01:00:27.624
01:07:39.430 : en:01:07:39.430
01:13:04.672 : en:01:13:04.672
01:20:18.522 : en:01:20:18.522
01:26:32.020 : en:01:26:32.020
01:33:11.044 : en:01:33:11.044
01:42:35.941 : en:01:42:35.941




回复下载:





游客,如果您要查看本帖隐藏内容请回复


本帖子中包含更多资源

您需要 登录 才可以下载或查看,没有帐号?立即注册

x
回复

使用道具 举报

发表于 2019-7-11 09:46:51 | 显示全部楼层
感谢楼主的分享
回复 支持 反对

使用道具 举报

发表于 2019-7-11 09:55:38 | 显示全部楼层
感谢楼主分享!
回复 支持 反对

使用道具 举报

发表于 2019-7-11 10:15:54 | 显示全部楼层

感谢楼主的分享 感谢CHD高清论
回复 支持 反对

使用道具 举报

发表于 2019-7-11 10:22:43 | 显示全部楼层
感谢楼主的分享

回复 支持 反对

使用道具 举报

发表于 2019-7-11 10:46:31 | 显示全部楼层
感谢楼主的分享
回复 支持 反对

使用道具 举报

发表于 2019-7-11 10:49:46 | 显示全部楼层
感谢楼主的分享
回复 支持 反对

使用道具 举报

发表于 2019-7-11 10:51:16 | 显示全部楼层
谢谢楼主分享!!!!
回复 支持 反对

使用道具 举报

发表于 2019-7-11 11:08:46 | 显示全部楼层
楼主发帖辛苦了,感谢楼主无私的分享!永远支持高清论坛!
回复 支持 反对

使用道具 举报

发表于 2019-7-11 11:25:18 | 显示全部楼层
谢谢楼主分享
回复 支持 反对

使用道具 举报

您需要登录后才可以回帖 登录 | 立即注册

本版积分规则

快速回复 返回顶部 返回列表