CHD高清论坛

 找回密码
 立即注册

QQ登录

只需一步,快速开始

搜索
热搜: 活动 交友 discuz
查看: 1231|回复: 267

[动作片] 悍将奇兵.1997.1080p.AMZN.WEBRip.DDP5.1.x264-monkee

  [复制链接]
发表于 2019-7-7 12:42:34 | 显示全部楼层 |阅读模式


◎译  名 悍将奇兵
◎片  名 Breakdown
◎年  代 1997
◎产  地 美国
◎类  别 悬疑 / 惊悚 / 犯罪
◎语  言 英语
◎上映日期 1997-08-28
◎IMDb评分 6.9/10 from 44480 users
◎IMDb链接 http://www.imdb.com/title/tt0118771
◎豆瓣评分 7.4/10 from 2236 users
◎豆瓣链接 https://movie.douban.com/subject/1304828/
◎片  长 93 分钟
◎导  演 乔纳森·莫斯托 Jonathan Mostow
◎编  剧 乔纳森·莫斯托 Jonathan Mostow / Sam Montgomery
◎主  演 库尔特·拉塞尔 Kurt Russell
      凯瑟琳·奎南 Kathleen Quinlan
      J.T. Walsh
      迈克·康纳·盖尼 M.C. Gainey
      杰克·诺斯沃迪 Jack Noseworthy
      瑞克斯·林恩 Rex Linn


◎标  签 美国 | 公路 | 犯罪 | 惊悚 | 动作 | 悬疑 | 1997 | 美国电影

◎简  介

  杰夫(库尔特·拉塞尔 Kurt Russell 饰)和艾米(凯瑟琳·奎南 Kathleen Quinlan 饰)是一对夫妻,在一次长途旅行之中,两人驾驶的车辆在荒郊野岭里抛锚了。正当两人急得焦头烂额之际,一个名叫瑞德(J·T·沃尔什 J.T. Walsh 饰)的陌生男人出现在了他们面前。瑞德好心的告诉杰夫和艾米,在不远处有地方能够叫到拖车,杰夫边让艾米跟随瑞德前往,很快,这个错误的决定就让杰夫付出了代价。
在等待拖车的过程中,杰夫自己修好了车,于是,他决定驱车前往瑞德所说的那个地方寻找瑞德和艾米。没想到,当杰夫到达后,当地没有一个人声称见过艾米。杰夫找到瑞德向其质问,瑞德竟然说自己不认识杰夫,更别提什么艾米了。敏感的杰夫察觉事情有诈,他想向警方求助可手上没有任何证据,一时间,杰夫陷入了绝望的境地。

Video
ID : 1
Format : AVC
Format/Info : Advanced Video Codec
Format profile : High@L4
Format settings : CABAC / 4 Ref Frames
Format settings, CABAC : Yes
Format settings, ReFrames : 4 frames
Codec ID : V_MPEG4/ISO/AVC
Duration : 1 h 33 min
Bit rate mode : Variable
Bit rate : 8 983 kb/s
Maximum bit rate : 15.0 Mb/s
Width : 1 920 pixels
Height : 816 pixels
Display aspect ratio : 2.35:1
Frame rate mode : Constant
Frame rate : 23.976 (24000/1001) FPS
Color space : YUV
Chroma subsampling : 4:2:0
Bit depth : 8 bits
Scan type : Progressive
Bits/(Pixel*Frame) : 0.239
Stream size : 5.84 GiB (93%)
Writing library : x264 core 148 r2623 d5b2374
Encoding settings : cabac=1 / ref=4 / deblock=1:-1:-1 / analyse=0x3:0x133 / me=umh / subme=9 / psy=1 / psy_rd=1.00:0.15 / mixed_ref=1 / me_range=24 / chroma_me=1 / trellis=2 / 8x8dct=1 / cqm=0 / deadzone=21,11 / fast_pskip=1 / chroma_qp_offset=-3 / threads=25 / lookahead_threads=4 / sliced_threads=0 / nr=150 / decimate=1 / interlaced=0 / bluray_compat=0 / constrained_intra=0 / bframes=8 / b_pyramid=2 / b_adapt=2 / b_bias=0 / direct=3 / weightb=1 / open_gop=0 / weightp=2 / keyint=120 / keyint_min=61 / scenecut=0 / intra_refresh=0 / rc_lookahead=120 / rc=crf / mbtree=1 / crf=18.0 / qcomp=0.60 / qpmin=0 / qpmax=69 / qpstep=4 / vbv_maxrate=15000 / vbv_bufsize=31250 / crf_max=0.0 / nal_hrd=vbr / filler=0 / ip_ratio=1.40 / aq=3:1.00
Default : Yes
Forced : No
Color range : Limited
Color primaries : BT.709
Transfer characteristics : BT.709
Matrix coefficients : BT.709

Audio
ID : 2
Format : AC-3
Format/Info : Audio Coding 3
Commercial name : Dolby Digital
Codec ID : A_AC3
Duration : 1 h 33 min
Bit rate mode : Constant
Bit rate : 448 kb/s
Channel(s) : 6 channels
Channel layout : L R C LFE Ls Rs
Sampling rate : 48.0 kHz
Frame rate : 31.250 FPS (1536 SPF)
Bit depth : 16 bits
Compression mode : Lossy
Stream size : 299 MiB (5%)
Language : English
Service kind : Complete Main
Default : Yes
Forced : No

Text
ID : 4
Format : UTF-8
Codec ID : S_TEXT/UTF8
Codec ID/Info : UTF-8 Plain Text
Duration : 1 h 24 min
Bit rate : 42 b/s
Count of elements : 1051
Stream size : 26.5 KiB (0%)
Language : English
Default : No
Forced : No

Menu
00:00:00.000 : en:(Unnamed scene)
00:00:17.000 : en:(Unnamed scene)
00:03:48.000 : en:(Unnamed scene)
00:06:17.000 : en:(Unnamed scene)
00:13:54.000 : en:(Unnamed scene)
00:15:05.000 : en:(Unnamed scene)
00:18:06.000 : en:(Unnamed scene)
00:27:17.000 : en:(Unnamed scene)
00:28:43.000 : en:(Unnamed scene)
00:33:20.000 : en:(Unnamed scene)
00:36:33.000 : en:(Unnamed scene)
00:39:05.000 : en:(Unnamed scene)
00:39:38.000 : en:(Unnamed scene)
00:44:25.000 : en:(Unnamed scene)
00:48:13.000 : en:(Unnamed scene)
00:51:12.000 : en:(Unnamed scene)
00:53:34.000 : en:(Unnamed scene)
00:56:37.000 : en:(Unnamed scene)
01:00:08.000 : en:(Unnamed scene)
01:02:43.000 : en:(Unnamed scene)
01:05:23.000 : en:(Unnamed scene)
01:12:47.000 : en:(Unnamed scene)
01:13:49.000 : en:(Unnamed scene)
01:17:10.000 : en:(Unnamed scene)
01:19:32.000 : en:(Unnamed scene)
01:23:13.000 : en:(Unnamed scene)
01:29:29.000 : en:(Unnamed scene)




回复下载:





游客,如果您要查看本帖隐藏内容请回复


本帖子中包含更多资源

您需要 登录 才可以下载或查看,没有帐号?立即注册

x
回复

使用道具 举报

发表于 2019-7-7 21:13:12 | 显示全部楼层
谢谢楼主分享!
回复 支持 1 反对 0

使用道具 举报

发表于 2019-7-7 21:25:38 | 显示全部楼层
感谢楼主分享
回复 支持 1 反对 0

使用道具 举报

发表于 2019-7-7 12:47:00 | 显示全部楼层
寇特羅素主演的耶
回复 支持 反对

使用道具 举报

发表于 2019-7-7 13:23:19 | 显示全部楼层
盐酸米诺环素
回复 支持 反对

使用道具 举报

发表于 2019-7-7 13:36:22 | 显示全部楼层
感谢楼主分享
回复 支持 反对

使用道具 举报

发表于 2019-7-7 13:41:10 | 显示全部楼层
lz分享的电影太棒了!
回复 支持 反对

使用道具 举报

发表于 2019-7-7 14:29:27 | 显示全部楼层
谢谢楼主分享!!!!!
回复 支持 反对

使用道具 举报

发表于 2019-7-7 14:33:34 | 显示全部楼层
非常感谢楼主的分享!
回复 支持 反对

使用道具 举报

发表于 2019-7-7 14:35:39 | 显示全部楼层
好东西,支持下
回复 支持 反对

使用道具 举报

发表于 2019-7-7 14:46:39 | 显示全部楼层
非常感谢楼主的分享!
回复 支持 反对

使用道具 举报

发表于 2019-7-7 14:47:18 | 显示全部楼层
非常感谢楼主的分享!
回复 支持 反对

使用道具 举报

您需要登录后才可以回帖 登录 | 立即注册

本版积分规则

快速回复 返回顶部 返回列表