CHD高清论坛

 找回密码
 立即注册

QQ登录

只需一步,快速开始

搜索
热搜: 活动 交友 discuz
查看: 2150|回复: 347

[剧情片] 越南妹霍莉/柬埔寨雏妓.2006.1080p.AMZN.WEBRip.DDP2.0.x264-monkee

  [复制链接]
发表于 2019-7-7 12:30:41 | 显示全部楼层 |阅读模式


◎译  名 越南妹霍莉 / 柬埔寨雏妓
◎片  名 Holly
◎年  代 2006
◎产  地 美国 / 法国 / 以色列 / Cambodia
◎类  别 剧情
◎语  言 英语 / Central Khmer / 越南语
◎上映日期 2006-08-16
◎IMDb评分 7.0/10 from 773 users
◎IMDb链接 http://www.imdb.com/title/tt0419815
◎豆瓣评分 7.6/10 from 365 users
◎豆瓣链接 https://movie.douban.com/subject/2269808/
◎片  长 114 分钟
◎导  演 Guy Moshe
◎编  剧 Guy Moshe
◎主  演 Thuy Nguyen
      朗·里维斯顿 Ron Livingston


◎标  签 柬埔寨童妓 | 纪录片 | 柬埔寨 | Holly | 美国电影 | 苦难 | 美国 | 童妓

◎简  介

  连年战争和残酷的专政令柬埔寨蒙受重创,在经济刚刚复苏之际,人们为了赚钱而无所不用其极,其中为数众多的未成年儿童沦为雏妓。
12岁的越南女孩霍莉(Thuy Nguyen 饰)被卖到柬埔寨,她不断逃跑、不断反抗,但全是徒劳。流浪柬埔寨的美国人帕特里克(Ron Livingston 饰)结识了这个小女孩,他可怜霍莉的身世,尽最大可能帮助她,虽然这份力量如此渺小无力。
桀骜的霍莉最终被老鸨转卖,她中途跳车逃跑,结果才出龙潭,又入虎穴。为了解救霍莉,帕特里克塔上寻找之路……

Video
ID : 1
Format : AVC
Format/Info : Advanced Video Codec
Format profile : High@L4
Format settings : CABAC / 4 Ref Frames
Format settings, CABAC : Yes
Format settings, ReFrames : 4 frames
Codec ID : V_MPEG4/ISO/AVC
Duration : 1 h 54 min
Bit rate mode : Constant
Bit rate : 8 211 kb/s
Nominal bit rate : 10 000 kb/s
Width : 1 920 pixels
Height : 816 pixels
Display aspect ratio : 2.35:1
Frame rate mode : Constant
Frame rate : 23.976 (24000/1001) FPS
Color space : YUV
Chroma subsampling : 4:2:0
Bit depth : 8 bits
Scan type : Progressive
Bits/(Pixel*Frame) : 0.219
Stream size : 6.56 GiB (97%)
Default : Yes
Forced : No
Color range : Limited
Color primaries : BT.709
Transfer characteristics : BT.709
Matrix coefficients : BT.709

Audio
ID : 2
Format : E-AC-3
Format/Info : Enhanced AC-3
Commercial name : Dolby Digital Plus
Codec ID : A_EAC3
Duration : 1 h 54 min
Bit rate mode : Constant
Bit rate : 224 kb/s
Channel(s) : 2 channels
Channel layout : L R
Sampling rate : 48.0 kHz
Frame rate : 31.250 FPS (1536 SPF)
Compression mode : Lossy
Stream size : 183 MiB (3%)
Language : English
Service kind : Complete Main
Default : Yes
Forced : No

Text #1
ID : 3
Format : UTF-8
Codec ID : S_TEXT/UTF8
Codec ID/Info : UTF-8 Plain Text
Duration : 1 h 46 min
Bit rate : 28 b/s
Count of elements : 911
Stream size : 22.1 KiB (0%)
Language : English
Default : No
Forced : No

Text #2
ID : 4
Format : UTF-8
Codec ID : S_TEXT/UTF8
Codec ID/Info : UTF-8 Plain Text
Duration : 1 h 50 min
Bit rate : 31 b/s
Count of elements : 1091
Stream size : 25.4 KiB (0%)
Title : SDH
Language : English
Default : No
Forced : No



回复下载:





游客,如果您要查看本帖隐藏内容请回复


本帖子中包含更多资源

您需要 登录 才可以下载或查看,没有帐号?立即注册

x
回复

使用道具 举报

发表于 2019-7-7 21:11:53 | 显示全部楼层

楼主发贴辛苦了,谢谢楼主分享
回复 支持 1 反对 0

使用道具 举报

发表于 2019-7-7 21:26:13 | 显示全部楼层
感谢楼主分享
回复 支持 1 反对 0

使用道具 举报

发表于 2019-7-7 12:39:03 | 显示全部楼层
谢谢版主分享
回复 支持 反对

使用道具 举报

发表于 2019-7-7 12:48:03 | 显示全部楼层
谢谢分享楼主辛苦
回复 支持 反对

使用道具 举报

发表于 2019-7-7 13:07:00 | 显示全部楼层
谢谢楼主分享
回复 支持 反对

使用道具 举报

发表于 2019-7-7 13:27:15 | 显示全部楼层
谢谢楼主分享
回复 支持 反对

使用道具 举报

发表于 2019-7-7 13:41:52 | 显示全部楼层
谢谢楼主分享
回复 支持 反对

使用道具 举报

发表于 2019-7-7 13:45:56 | 显示全部楼层
高清论坛很nice
回复 支持 反对

使用道具 举报

发表于 2019-7-7 13:55:38 | 显示全部楼层
thank for sharing
回复 支持 反对

使用道具 举报

发表于 2019-7-7 14:38:10 | 显示全部楼层
非常感谢楼主的分享!
回复 支持 反对

使用道具 举报

发表于 2019-7-7 14:49:19 | 显示全部楼层
非常感谢楼主的分享!
回复 支持 反对

使用道具 举报

您需要登录后才可以回帖 登录 | 立即注册

本版积分规则

快速回复 返回顶部 返回列表