CHD高清论坛

 找回密码
 立即注册

QQ登录

只需一步,快速开始

搜索
热搜: 活动 交友 discuz
查看: 926|回复: 116

[剧情片] 谋杀疑云/猜猜猜谁是凶手.2019.1080p.NF.WEBRip.DDP5.1.x264-NTG

  [复制链接]
发表于 2019-6-20 18:28:24 | 显示全部楼层 |阅读模式


◎译  名 谋杀疑云 / 猜猜猜谁是凶手(港) / 谋杀之谜 / 谋杀案 / 谋杀疑案
◎片  名 Murder Mystery
◎年  代 2019
◎产  地 美国
◎类  别 剧情 / 喜剧 / 动作 / 爱情 / 悬疑
◎语  言 英语
◎上映日期 2019-06-14(美国)
◎IMDb评分 6.4/10 from 30 users
◎IMDb链接 http://www.imdb.com/title/tt1618434
◎豆瓣评分 0/10 from 0 users
◎豆瓣链接 https://movie.douban.com/subject/15077774/
◎导  演 凯尔·纽瓦切克 Kyle Newacheck
◎编  剧 詹姆斯·范德比尔特 James Vanderbilt
◎主  演 詹妮弗·安妮斯顿 Jennifer Aniston
      亚当·桑德勒 Adam Sandler
      杰玛·阿特登 Gemma Arterton
      卢克·伊万斯 Luke Evans
      丹尼·伯恩 Dany Boon
      忽那汐里 Kutsuna Shiori
      奥拉维尔·达里·奥拉夫松 ólafur Darri ólafsson
      杰姬·桑德勒 Jackie Sandler
      特伦斯·斯坦普 Terence Stamp
      约翰·卡尼 John Kani
      大卫·威廉姆斯 David Walliams
      阿迪勒·阿赫塔尔 Adeel Akhtar
      苏芙·布莱德肖 Sufe Bradshaw
      路易斯·赫拉尔多·门德斯 Luis Gerardo Méndez
      埃里克·格里芬 Erik Griffin
      维克托·特平 Victor Turpin
      妮可·兰德尔·约翰逊 Nicole Randall Johnson
      埃莱娜·卡多纳 Hélène Cardona
      丹妮拉·桑德福德 Daniela Sandiford
      彼得·阿佩塞拉 Peter Arpesella
      拉斐尔·格罗斯-哈维 Raphael Grosz-Harvey
      安德烈·多伦特 Andrea Dolente


◎标  签 喜剧 | 詹妮弗·安妮斯顿 | 美国 | 2019 | Netflix | 犯罪 | 美国电影 | 电影

◎简  介

  卢克·伊万斯加盟亚当·桑德勒与詹妮弗·安妮斯顿主演的Netflix新喜剧片《谋杀疑案》(Murder Mystery),桑德勒和安妮斯顿饰演夫妻,男方是一名纽约警察,夫妻去欧洲度假,在飞机上遇到一个神秘男人(伊万斯),邀请他们去参加一名老年亿万富翁的家庭聚会,当这名富翁被谋杀后,两人成为头号嫌疑犯。
这是桑德勒第6次与Netflix合作,安妮斯顿是第一次。Kyle Newacheck(《工作狂》)执导,James Vanderbilt(《超凡蜘蛛侠1/2》《十二宫》)编写剧本。

Video
ID : 1
Format : AVC
Format/Info : Advanced Video Codec
Format profile : Main@L4
Format settings : CABAC / 3 Ref Frames
Format settings, CABAC : Yes
Format settings, ReFrames : 3 frames
Codec ID : V_MPEG4/ISO/AVC
Duration : 1 h 37 min
Bit rate mode : Variable
Bit rate : 4 220 kb/s
Maximum bit rate : 6 330 kb/s
Width : 1 920 pixels
Height : 1 080 pixels
Display aspect ratio : 16:9
Frame rate mode : Constant
Frame rate : 24.000 FPS
Color space : YUV
Chroma subsampling : 4:2:0
Bit depth : 8 bits
Scan type : Progressive
Bits/(Pixel*Frame) : 0.085
Stream size : 2.80 GiB (86%)
Writing library : x264 core 148 r2715 7e75228
Encoding settings : cabac=1 / ref=3 / deblock=1:0:0 / analyse=0x1:0x111 / me=umh / subme=10 / psy=1 / psy_rd=1.00:0.00 / mixed_ref=1 / me_range=24 / chroma_me=1 / trellis=2 / 8x8dct=0 / cqm=0 / deadzone=21,11 / fast_pskip=1 / chroma_qp_offset=-2 / threads=8 / lookahead_threads=1 / sliced_threads=0 / nr=0 / decimate=1 / interlaced=0 / bluray_compat=0 / stitchable=1 / constrained_intra=0 / bframes=2 / b_pyramid=0 / b_adapt=2 / b_bias=0 / direct=3 / weightb=1 / open_gop=0 / weightp=2 / keyint=250 / keyint_min=24 / scenecut=0 / intra_refresh=0 / rc_lookahead=48 / rc=2pass / mbtree=1 / bitrate=4220 / ratetol=1.0 / qcomp=0.50 / qpmin=6 / qpmax=51 / qpstep=4 / cplxblur=20.0 / qblur=0.5 / vbv_maxrate=6330 / vbv_bufsize=8440 / nal_hrd=vbr / filler=0 / ip_ratio=1.40 / aq=1:1.00
Default : Yes
Forced : No

Audio
ID : 2
Format : E-AC-3
Format/Info : Enhanced AC-3
Commercial name : Dolby Digital Plus
Codec ID : A_EAC3
Duration : 1 h 37 min
Bit rate mode : Constant
Bit rate : 640 kb/s
Channel(s) : 6 channels
Channel layout : L R C LFE Ls Rs
Sampling rate : 48.0 kHz
Frame rate : 31.250 FPS (1536 SPF)
Compression mode : Lossy
Stream size : 448 MiB (13%)
Title : English
Language : English
Service kind : Complete Main
Default : Yes
Forced : No

Text #1
ID : 3
Format : UTF-8
Codec ID : S_TEXT/UTF8
Codec ID/Info : UTF-8 Plain Text
Duration : 1 h 28 min
Bit rate : 99 b/s
Count of elements : 1898
Stream size : 64.3 KiB (0%)
Language : English
Default : No
Forced : No

Text #2
ID : 4
Format : UTF-8
Codec ID : S_TEXT/UTF8
Codec ID/Info : UTF-8 Plain Text
Duration : 1 h 28 min
Bit rate : 106 b/s
Count of elements : 2035
Stream size : 69.2 KiB (0%)
Title : SDH
Language : English
Default : No
Forced : No

Text #3
ID : 5
Format : UTF-8
Codec ID : S_TEXT/UTF8
Codec ID/Info : UTF-8 Plain Text
Duration : 1 h 27 min
Bit rate : 166 b/s
Count of elements : 1783
Stream size : 106 KiB (0%)
Language : Arabic
Default : No
Forced : No

Text #4
ID : 6
Format : UTF-8
Codec ID : S_TEXT/UTF8
Codec ID/Info : UTF-8 Plain Text
Duration : 1 h 26 min
Bit rate : 83 b/s
Count of elements : 1705
Stream size : 53.2 KiB (0%)
Language : Czech
Default : No
Forced : No

Text #5
ID : 7
Format : UTF-8
Codec ID : S_TEXT/UTF8
Codec ID/Info : UTF-8 Plain Text
Duration : 1 h 27 min
Bit rate : 81 b/s
Count of elements : 1684
Stream size : 51.9 KiB (0%)
Language : Danish
Default : No
Forced : No

Text #6
ID : 8
Format : UTF-8
Codec ID : S_TEXT/UTF8
Codec ID/Info : UTF-8 Plain Text
Duration : 1 h 26 min
Bit rate : 87 b/s
Count of elements : 1658
Stream size : 55.4 KiB (0%)
Language : German
Default : No
Forced : No

Text #7
ID : 9
Format : UTF-8
Codec ID : S_TEXT/UTF8
Codec ID/Info : UTF-8 Plain Text
Duration : 1 h 27 min
Bit rate : 143 b/s
Count of elements : 1732
Stream size : 91.7 KiB (0%)
Language : Greek
Default : No
Forced : No

Text #8
ID : 10
Format : UTF-8
Codec ID : S_TEXT/UTF8
Codec ID/Info : UTF-8 Plain Text
Duration : 1 h 27 min
Bit rate : 84 b/s
Count of elements : 1688
Stream size : 54.0 KiB (0%)
Language : Spanish
Default : No
Forced : No

Text #9
ID : 11
Format : UTF-8
Codec ID : S_TEXT/UTF8
Codec ID/Info : UTF-8 Plain Text
Duration : 1 h 26 min
Bit rate : 82 b/s
Count of elements : 1687
Stream size : 52.6 KiB (0%)
Title : European
Language : Spanish
Default : No
Forced : No

Text #10
ID : 12
Format : UTF-8
Codec ID : S_TEXT/UTF8
Codec ID/Info : UTF-8 Plain Text
Duration : 1 h 27 min
Bit rate : 68 b/s
Count of elements : 998
Stream size : 43.7 KiB (0%)
Language : Finnish
Default : No
Forced : No

Text #11
ID : 13
Format : UTF-8
Codec ID : S_TEXT/UTF8
Codec ID/Info : UTF-8 Plain Text
Duration : 1 h 26 min
Bit rate : 92 b/s
Count of elements : 1710
Stream size : 59.1 KiB (0%)
Language : French
Default : No
Forced : No

Text #12
ID : 14
Format : UTF-8
Codec ID : S_TEXT/UTF8
Codec ID/Info : UTF-8 Plain Text
Duration : 1 h 27 min
Bit rate : 139 b/s
Count of elements : 1643
Stream size : 88.8 KiB (0%)
Language : Hebrew
Default : No
Forced : No

Text #13
ID : 15
Format : UTF-8
Codec ID : S_TEXT/UTF8
Codec ID/Info : UTF-8 Plain Text
Duration : 1 h 27 min
Bit rate : 255 b/s
Count of elements : 1774
Stream size : 163 KiB (0%)
Language : Hindi
Default : No
Forced : No

Text #14
ID : 16
Format : UTF-8
Codec ID : S_TEXT/UTF8
Codec ID/Info : UTF-8 Plain Text
Duration : 1 h 27 min
Bit rate : 96 b/s
Count of elements : 1776
Stream size : 61.7 KiB (0%)
Language : Hungarian
Default : No
Forced : No

Text #15
ID : 17
Format : UTF-8
Codec ID : S_TEXT/UTF8
Codec ID/Info : UTF-8 Plain Text
Duration : 1 h 26 min
Bit rate : 85 b/s
Count of elements : 1764
Stream size : 54.3 KiB (0%)
Language : Indonesian
Default : No
Forced : No

Text #16
ID : 18
Format : UTF-8
Codec ID : S_TEXT/UTF8
Codec ID/Info : UTF-8 Plain Text
Duration : 1 h 26 min
Bit rate : 89 b/s
Count of elements : 1649
Stream size : 56.8 KiB (0%)
Language : Italian
Default : No
Forced : No

Text #17
ID : 19
Format : UTF-8
Codec ID : S_TEXT/UTF8
Codec ID/Info : UTF-8 Plain Text
Duration : 1 h 26 min
Bit rate : 83 b/s
Count of elements : 1857
Stream size : 53.2 KiB (0%)
Language : Japanese
Default : No
Forced : No

Text #18
ID : 20
Format : UTF-8
Codec ID : S_TEXT/UTF8
Codec ID/Info : UTF-8 Plain Text
Duration : 1 h 27 min
Bit rate : 108 b/s
Count of elements : 1764
Stream size : 69.0 KiB (0%)
Language : Korean
Default : No
Forced : No

Text #19
ID : 21
Format : UTF-8
Codec ID : S_TEXT/UTF8
Codec ID/Info : UTF-8 Plain Text
Duration : 1 h 27 min
Bit rate : 80 b/s
Count of elements : 1449
Stream size : 51.7 KiB (0%)
Language : Norwegian Bokmal
Default : No
Forced : No

Text #20
ID : 22
Format : UTF-8
Codec ID : S_TEXT/UTF8
Codec ID/Info : UTF-8 Plain Text
Duration : 1 h 26 min
Bit rate : 77 b/s
Count of elements : 1338
Stream size : 49.4 KiB (0%)
Language : Dutch
Default : No
Forced : No

Text #21
ID : 23
Format : UTF-8
Codec ID : S_TEXT/UTF8
Codec ID/Info : UTF-8 Plain Text
Duration : 1 h 26 min
Bit rate : 81 b/s
Count of elements : 1596
Stream size : 52.1 KiB (0%)
Language : Polish
Default : No
Forced : No

Text #22
ID : 24
Format : UTF-8
Codec ID : S_TEXT/UTF8
Codec ID/Info : UTF-8 Plain Text
Duration : 1 h 27 min
Bit rate : 88 b/s
Count of elements : 1685
Stream size : 56.2 KiB (0%)
Language : Portuguese
Default : No
Forced : No

Text #23
ID : 25
Format : UTF-8
Codec ID : S_TEXT/UTF8
Codec ID/Info : UTF-8 Plain Text
Duration : 1 h 27 min
Bit rate : 84 b/s
Count of elements : 1747
Stream size : 53.9 KiB (0%)
Title : Brazilian
Language : Portuguese
Default : No
Forced : No

Text #24
ID : 26
Format : UTF-8
Codec ID : S_TEXT/UTF8
Codec ID/Info : UTF-8 Plain Text
Duration : 1 h 26 min
Bit rate : 98 b/s
Count of elements : 1707
Stream size : 62.8 KiB (0%)
Language : Romanian
Default : No
Forced : No

Text #25
ID : 27
Format : UTF-8
Codec ID : S_TEXT/UTF8
Codec ID/Info : UTF-8 Plain Text
Duration : 1 h 26 min
Bit rate : 131 b/s
Count of elements : 1672
Stream size : 83.9 KiB (0%)
Language : Russian
Default : No
Forced : No

Text #26
ID : 28
Format : UTF-8
Codec ID : S_TEXT/UTF8
Codec ID/Info : UTF-8 Plain Text
Duration : 1 h 27 min
Bit rate : 82 b/s
Count of elements : 1401
Stream size : 52.8 KiB (0%)
Language : Swedish
Default : No
Forced : No

Text #27
ID : 29
Format : UTF-8
Codec ID : S_TEXT/UTF8
Codec ID/Info : UTF-8 Plain Text
Duration : 1 h 27 min
Bit rate : 248 b/s
Count of elements : 1778
Stream size : 159 KiB (0%)
Language : Thai
Default : No
Forced : No

Text #28
ID : 30
Format : UTF-8
Codec ID : S_TEXT/UTF8
Codec ID/Info : UTF-8 Plain Text
Duration : 1 h 27 min
Bit rate : 90 b/s
Count of elements : 1739
Stream size : 57.6 KiB (0%)
Language : Turkish
Default : No
Forced : No

Text #29
ID : 31
Format : UTF-8
Codec ID : S_TEXT/UTF8
Codec ID/Info : UTF-8 Plain Text
Duration : 1 h 27 min
Bit rate : 118 b/s
Count of elements : 1775
Stream size : 75.4 KiB (0%)
Language : Vietnamese
Default : No
Forced : No

Text #30
ID : 32
Format : UTF-8
Codec ID : S_TEXT/UTF8
Codec ID/Info : UTF-8 Plain Text
Duration : 1 h 27 min
Bit rate : 97 b/s
Count of elements : 1775
Stream size : 62.5 KiB (0%)
Title : Simplified
Language : Chinese
Default : No
Forced : No

Text #31
ID : 33
Format : UTF-8
Codec ID : S_TEXT/UTF8
Codec ID/Info : UTF-8 Plain Text
Duration : 1 h 27 min
Bit rate : 85 b/s
Count of elements : 1773
Stream size : 54.7 KiB (0%)
Title : Traditional
Language : Chinese
Default : No
Forced : No




回复下载:





游客,如果您要查看本帖隐藏内容请回复


本帖子中包含更多资源

您需要 登录 才可以下载或查看,没有帐号?立即注册

x
回复

使用道具 举报

发表于 2019-6-20 18:33:36 | 显示全部楼层
感谢分享好电影
回复 支持 反对

使用道具 举报

发表于 2019-6-20 18:45:50 | 显示全部楼层
谢谢楼主分享电影
回复 支持 反对

使用道具 举报

发表于 2019-6-20 18:47:03 | 显示全部楼层
谢谢楼主分享好片
回复 支持 反对

使用道具 举报

发表于 2019-6-20 19:04:03 | 显示全部楼层
感谢发布好电影
回复 支持 反对

使用道具 举报

发表于 2019-6-20 19:05:09 | 显示全部楼层
thanks a lot
回复 支持 反对

使用道具 举报

发表于 2019-6-20 19:19:15 | 显示全部楼层
斑竹回来啦,好耶!发片的大大越多越好。有组织的感觉真好,请收下我的膝盖。感谢楼主发布佳片。
回复 支持 反对

使用道具 举报

发表于 2019-6-20 20:23:18 | 显示全部楼层
谢谢楼主分享好片!~~
回复 支持 反对

使用道具 举报

您需要登录后才可以回帖 登录 | 立即注册

本版积分规则

快速回复 返回顶部 返回列表