CHD高清论坛

 找回密码
 立即注册

QQ登录

只需一步,快速开始

搜索
热搜: 活动 交友 discuz
查看: 1194|回复: 187

[奇幻片] 小飞象/小飞象真人版.2019.1080p.BluRay.x264-SPARKS

  [复制链接]
发表于 2019-6-18 16:54:00 | 显示全部楼层 |阅读模式


◎译  名 小飞象 / 小飞象真人版
◎片  名 Dumbo
◎年  代 2019
◎产  地 美国
◎类  别 奇幻 / 冒险
◎语  言 英语
◎上映日期 2019-03-29(美国/中国大陆)
◎IMDb评分 6.5/10 from 26607 users
◎IMDb链接 http://www.imdb.com/title/tt3861390
◎豆瓣评分 6.8/10 from 27773 users
◎豆瓣链接 https://movie.douban.com/subject/25924056/
◎片  长 112分钟
◎导  演 蒂姆·波顿 Tim Burton
◎编  剧 伊伦·克鲁格 Ehren Kruger
◎主  演 伊娃·格林 Eva Green
      科林·法瑞尔 Colin Farrell
      迈克尔·基顿 Michael Keaton
      妮可·帕克 Nico Parker
      芬利·霍宾斯 Finley Hobbins
      丹尼·德维托 Danny DeVito
      艾伦·阿金 Alan Arkin
      卡米尔·雷米泽斯基 Kamil Lemieszewski
      约瑟夫·盖特 Joseph Gatt
      桑迪·马丁 Sandy Martin
      乔·奥斯蒙德 Jo Osmond
      莎朗·鲁妮 Sharon Rooney
      拉斯·艾丁格 Lars Eidinger
      罗珊·塞斯 Roshan Seth
      道比·欧帕瑞 Deobia Oparei
      迈克尔·巴佛 Michael Buffer
      Jessie Vinning
      伯纳多·桑托斯 Bernardo Santos
      Bern Colla?o
      文森特·阿德里安 Vincent Andriano
      菲利普·罗施 Philip Rosch
      露西·德维托 Lucy DeVito
      Lampros Kalfuntzos
      Amerjit Deu
      Stephen Samson
      埃里克·海登 Erick Hayden


◎标  签 迪士尼 | 温情 | 童话 | 奇幻 | 美国 | 真人版 | 动画 | 2019

◎简  介

  迪士尼全新真人版《小飞象》改编自1941年推出的迪士尼同名经典动画,讲述了生来因一双大耳朵而遭人嘲笑的小飞象,在众人的帮助下逐渐拥抱自己的与众不同,成就一段逆风翱翔的暖心传奇。
一位前马戏团明星,刚从战争前线归来,霍特·法瑞尔(科林·法瑞尔饰)在一家艰难经营的马戏团谋得一份工作,负责照顾刚出生的小象,带着两个善良的孩子,女儿米莉·法瑞尔(尼科·帕克饰)和儿子乔·法瑞尔(芬利·霍宾斯饰),两个孩子和另外一个女孩玛茜特(蔡慧泉饰)与小飞象成为朋友, 帮助小飞象找到妈妈。
当人们发现小象会飞后,马戏团重复生机,更吸引到一个充满心机的生意人文德维尔(迈克尔·基顿饰)的注意,他把小飞象雇佣到他的大型游乐场Dreamland,与杂技演员柯莱特·马钱特(伊娃·格林饰)做搭档,人气达到新高度,然而霍特·法瑞尔发现,游乐场光鲜亮丽的背后,充满种种见不得人的秘密。


Video
ID : 1
Format : AVC
Format/Info : Advanced Video Codec
Format profile : High@L4.1
Format settings : CABAC / 4 Ref Frames
Format settings, CABAC : Yes
Format settings, ReFrames : 4 frames
Codec ID : V_MPEG4/ISO/AVC
Duration : 1 h 51 min
Bit rate : 8 651 kb/s
Width : 1 920 pixels
Height : 1 040 pixels
Display aspect ratio : 1.85:1
Frame rate mode : Constant
Frame rate : 23.976 (24000/1001) FPS
Color space : YUV
Chroma subsampling : 4:2:0
Bit depth : 8 bits
Scan type : Progressive
Bits/(Pixel*Frame) : 0.181
Stream size : 6.76 GiB (85%)
Writing library : x264 core 157 r2969 d4099dd
Encoding settings : cabac=1 / ref=4 / deblock=1:-3:-3 / analyse=0x3:0x133 / me=umh / subme=8 / psy=1 / psy_rd=1.00:0.00 / mixed_ref=1 / me_range=16 / chroma_me=1 / trellis=1 / 8x8dct=1 / cqm=0 / deadzone=21,11 / fast_pskip=0 / chroma_qp_offset=-2 / threads=30 / lookahead_threads=5 / sliced_threads=0 / nr=0 / decimate=1 / interlaced=0 / bluray_compat=0 / constrained_intra=0 / bframes=3 / b_pyramid=2 / b_adapt=1 / b_bias=0 / direct=3 / weightb=1 / open_gop=0 / weightp=2 / keyint=250 / keyint_min=23 / scenecut=40 / intra_refresh=0 / rc_lookahead=50 / rc=2pass / mbtree=1 / bitrate=8651 / ratetol=1.0 / qcomp=0.60 / qpmin=0 / qpmax=69 / qpstep=4 / cplxblur=20.0 / qblur=0.5 / vbv_maxrate=62500 / vbv_bufsize=78125 / nal_hrd=none / filler=0 / ip_ratio=1.40 / aq=1:1.00
Default : Yes
Forced : No

Audio
ID : 2
Format : DTS
Format/Info : Digital Theater Systems
Codec ID : A_DTS
Duration : 1 h 51 min
Bit rate mode : Constant
Bit rate : 1 509 kb/s
Channel(s) : 6 channels
Channel layout : C L R Ls Rs LFE
Sampling rate : 48.0 kHz
Frame rate : 93.750 FPS (512 SPF)
Bit depth : 24 bits
Compression mode : Lossy
Stream size : 1.18 GiB (15%)
Language : English
Default : Yes
Forced : No

Menu
00:00:00.000 : en:00:00:00.000
00:02:49.461 : en:00:02:49.461
00:06:46.072 : en:00:06:46.072
00:11:23.766 : en:00:11:23.766
00:16:33.993 : en:00:16:33.993
00:19:20.493 : en:00:19:20.493
00:26:08.233 : en:00:26:08.233
00:27:46.331 : en:00:27:46.331
00:31:07.783 : en:00:31:07.783
00:35:09.024 : en:00:35:09.024
00:40:44.984 : en:00:40:44.984
00:46:44.927 : en:00:46:44.927
00:50:23.938 : en:00:50:23.938
00:57:15.265 : en:00:57:15.265
01:01:53.126 : en:01:01:53.126
01:07:18.785 : en:01:07:18.785
01:10:11.666 : en:01:10:11.666
01:14:47.858 : en:01:14:47.858
01:18:05.055 : en:01:18:05.055
01:27:55.896 : en:01:27:55.896
01:37:09.532 : en:01:37:09.532
01:39:41.100 : en:01:39:41.100
01:44:02.611 : en:01:44:02.611




回复下载:





游客,如果您要查看本帖隐藏内容请回复


本帖子中包含更多资源

您需要 登录 才可以下载或查看,没有帐号?立即注册

x
回复

使用道具 举报

发表于 2019-6-18 16:55:43 | 显示全部楼层
感谢楼主谢谢
回复 支持 反对

使用道具 举报

发表于 2019-6-18 16:58:18 | 显示全部楼层
谢谢楼主分享
回复 支持 反对

使用道具 举报

发表于 2019-6-18 17:43:15 | 显示全部楼层
感谢楼主无私奉献爱你的分享!!!
回复 支持 反对

使用道具 举报

发表于 2019-6-18 17:46:18 | 显示全部楼层
没有中文字幕????
回复 支持 反对

使用道具 举报

发表于 2019-6-18 17:46:24 | 显示全部楼层

感谢楼主分享,谢谢!!!
回复 支持 反对

使用道具 举报

发表于 2019-6-18 17:50:59 | 显示全部楼层
感谢楼主分享,谢谢!!!
回复 支持 反对

使用道具 举报

发表于 2019-6-18 18:01:17 | 显示全部楼层
谢谢分享 下给孩子看
回复 支持 反对

使用道具 举报

发表于 2019-6-18 18:05:18 | 显示全部楼层
谢谢楼主的无私奉献。
回复 支持 反对

使用道具 举报

您需要登录后才可以回帖 登录 | 立即注册

本版积分规则

快速回复 返回顶部 返回列表