CHD高清论坛

 找回密码
 立即注册

QQ登录

只需一步,快速开始

搜索
热搜: 活动 交友 discuz
查看: 1375|回复: 181

[喜剧片] 神奇乐园历险记.2019.1080p.BluRay.x264-DRONES

  [复制链接]
发表于 2019-6-16 09:31:54 | 显示全部楼层 |阅读模式


◎译  名 神奇乐园历险记 / Amusement Park / 奇幻游乐园 / 游乐园 / 神奇梦乐园(港)
◎片  名 Wonder Park
◎年  代 2019
◎产  地 美国 / 西班牙
◎类  别 喜剧 / 动画 / 奇幻 / 冒险
◎语  言 英语
◎上映日期 2019-03-15(美国) / 2019-04-19(中国大陆)
◎IMDb评分 5.7/10 from 2627 users
◎IMDb链接 http://www.imdb.com/title/tt6428676
◎豆瓣评分 6.5/10 from 1556 users
◎豆瓣链接 https://movie.douban.com/subject/26662282/
◎片  长 86分钟
◎导  演 迪兰·布朗 Dylan Brown
◎编  剧 乔什·阿佩尔鲍姆 Josh Appelbaum / 安德烈·内梅克 André Nemec / 罗伯特·戈登 Robert Gordon
◎主  演 索菲亚·玛丽 Sofia Mali
      詹妮弗·加纳 Jennifer Garner
      肯·哈德森·坎贝尔 Ken Hudson Campbell
      基南·汤普森 Kenan Thompson
      米拉·库尼斯 Mila Kunis
      约翰·奥利弗 John Oliver
      郑肯 Ken Jeong
      诺尔贝特·里奥·布茨 Norbert Leo Butz
      马修·布罗德里克 Matthew Broderick
      凯特·麦克格雷格-斯图尔特 Kate McGregor-Stewart
      凯文·张伯伦 Kevin Chamberlin
      凯斯·索西 Kath Soucie


◎标  签 动画 | 奇幻 | 美国 | 2019 | 冒险 | 喜剧 | 派拉蒙 | 亲情

◎简  介

  一位极富创造力的女孩小六月,偶然间发现了一座神奇的乐园。在乐园里,有着各式各样惊险刺激的游乐设施和形形色色的动物朋友。在这个奇幻的世界里,将会发生怎样意想不到的故事呢?

Video
ID : 1
Format : AVC
Format/Info : Advanced Video Codec
Format profile : High@L4.1
Format settings : CABAC / 5 Ref Frames
Format settings, CABAC : Yes
Format settings, ReFrames : 5 frames
Codec ID : V_MPEG4/ISO/AVC
Duration : 1 h 25 min
Bit rate : 6 696 kb/s
Width : 1 920 pixels
Height : 800 pixels
Display aspect ratio : 2.40:1
Frame rate mode : Constant
Frame rate : 23.976 (24000/1001) FPS
Color space : YUV
Chroma subsampling : 4:2:0
Bit depth : 8 bits
Scan type : Progressive
Bits/(Pixel*Frame) : 0.182
Stream size : 3.99 GiB (91%)
Writing library : x264 core 157 r2969 d4099dd
Encoding settings : cabac=1 / ref=5 / deblock=1:2:1 / analyse=0x3:0x133 / me=umh / subme=8 / psy=1 / psy_rd=1.00:0.00 / mixed_ref=1 / me_range=16 / chroma_me=1 / trellis=1 / 8x8dct=1 / cqm=0 / deadzone=21,11 / fast_pskip=0 / chroma_qp_offset=-2 / threads=25 / lookahead_threads=4 / sliced_threads=0 / nr=0 / decimate=1 / interlaced=0 / bluray_compat=0 / constrained_intra=0 / bframes=3 / b_pyramid=2 / b_adapt=1 / b_bias=0 / direct=3 / weightb=1 / open_gop=0 / weightp=2 / keyint=250 / keyint_min=23 / scenecut=40 / intra_refresh=0 / rc_lookahead=50 / rc=2pass / mbtree=1 / bitrate=6696 / ratetol=1.0 / qcomp=0.60 / qpmin=0 / qpmax=69 / qpstep=4 / cplxblur=20.0 / qblur=0.5 / vbv_maxrate=62500 / vbv_bufsize=78125 / nal_hrd=none / filler=0 / ip_ratio=1.40 / aq=1:1.00
Default : Yes
Forced : No

Audio
ID : 2
Format : AC-3
Format/Info : Audio Coding 3
Commercial name : Dolby Digital
Codec ID : A_AC3
Duration : 1 h 25 min
Bit rate mode : Constant
Bit rate : 640 kb/s
Channel(s) : 6 channels
Channel layout : L R C LFE Ls Rs
Sampling rate : 48.0 kHz
Frame rate : 31.250 FPS (1536 SPF)
Bit depth : 16 bits
Compression mode : Lossy
Stream size : 390 MiB (9%)
Language : English
Service kind : Complete Main
Default : Yes
Forced : No

Menu
00:00:00.000 : en:00:00:00.000
00:06:34.811 : en:00:06:34.811
00:12:05.475 : en:00:12:05.475
00:20:22.847 : en:00:20:22.847
00:25:49.590 : en:00:25:49.590
00:33:03.648 : en:00:33:03.648
00:39:14.185 : en:00:39:14.185
00:47:39.648 : en:00:47:39.648
00:54:39.443 : en:00:54:39.443
01:00:32.462 : en:01:00:32.462
01:06:17.807 : en:01:06:17.807
01:13:12.054 : en:01:13:12.054
01:17:49.748 : en:01:17:49.748




回复下载:





游客,如果您要查看本帖隐藏内容请回复


本帖子中包含更多资源

您需要 登录 才可以下载或查看,没有帐号?立即注册

x
回复

使用道具 举报

发表于 2019-6-20 10:47:17 | 显示全部楼层
美国最新的动漫,电影很不错,想看的小伙伴点击http://www.fl231.com/play/27146-0-0.html直接观看,更多最新电影,电视,综艺,以及福利点击www.fl231.com直接搜索观看
:)
回复 支持 1 反对 0

使用道具 举报

发表于 2019-6-16 10:11:25 | 显示全部楼层
你懂的111111111111111
回复 支持 反对

使用道具 举报

发表于 2019-6-16 10:27:46 | 显示全部楼层
下载看看,下载看看
回复 支持 反对

使用道具 举报

发表于 2019-6-16 10:30:26 | 显示全部楼层
挺不错的动画片 谢谢分享
回复 支持 反对

使用道具 举报

发表于 2019-6-16 10:44:46 | 显示全部楼层
不错的片子。 谢谢分享

回复 支持 反对

使用道具 举报

发表于 2019-6-16 11:34:15 | 显示全部楼层
楼主辛苦,谢谢分享
回复 支持 反对

使用道具 举报

发表于 2019-6-16 11:36:24 | 显示全部楼层
不错的片子。 谢谢分享
回复 支持 反对

使用道具 举报

发表于 2019-6-16 11:38:29 | 显示全部楼层
不错的片子。 谢谢分享
回复 支持 反对

使用道具 举报

您需要登录后才可以回帖 登录 | 立即注册

本版积分规则

快速回复 返回顶部 返回列表