CHD高清论坛

 找回密码
 立即注册

QQ登录

只需一步,快速开始

搜索
热搜: 活动 交友 discuz
查看: 1615|回复: 260

[剧情片] 野马.2019.1080p.WEBRip.x264-RARBG

  [复制链接]
发表于 2019-6-5 18:34:21 | 显示全部楼层 |阅读模式


◎译  名 野马
◎片  名 The Mustang
◎年  代 2019
◎产  地 法国 / 美国
◎类  别 剧情
◎语  言 英语
◎上映日期 2019-03-15(美国)
◎IMDb评分 7.3/10 from 1131 users
◎IMDb链接 http://www.imdb.com/title/tt5952594
◎豆瓣评分 7.6/10 from 144 users
◎豆瓣链接 https://movie.douban.com/subject/27162627/
◎片  长 96分钟(圣丹斯电影节)
◎导  演 劳瑞·德·克莱蒙特-托奈尔 Laure de Clermont-Tonnerre
◎编  剧 劳瑞·德·克莱蒙特-托奈尔 Laure de Clermont-Tonnerre / Brock Norman Brock / 莫娜·法斯特欧德 Mona Fastvold
◎主  演 马提亚斯·修奈尔 Matthias Schoenaerts
      康妮·布里登 Connie Britton
      布鲁斯·邓恩 Bruce Dern
      乔什·斯图沃特 Josh Stewart
      吉第安·艾朵 Gideon Adlon
      杰森·米切尔 Jason Mitchell
      凯莉·理查德森 Kelly Richardson
      Santina Muha
      Jasmeet Baduwalia
      Heath Hensley


◎标  签 美国 | 2019 | 剧情 | 法国 | 真实事件 | 野马 | 马提亚斯·修奈尔 | 美国电影

◎简  介

  法国导演Laure de Clermont-Tonnerre(《纯真曲》《追忆似水年华》)执导并同Mona Fastvold(《战前童年》《梦游者》)和Brock Norman Brock(《国境卫士》《布朗森》)编写剧本,已于内华达开拍。修奈尔饰演一名暴力罪犯Roman Coleman,得到了参与一项康复治疗程序的机会,其中包括训练野蛮的野马。斯图沃特饰演Coleman的狱友,萨兰登饰演监狱的治疗专家,艾朵饰演Coleman的女儿。

Video
ID : 1
Format : AVC
Format/Info : Advanced Video Codec
Format profile : High@L4.1
Format settings : CABAC / 4 Ref Frames
Format settings, CABAC : Yes
Format settings, ReFrames : 4 frames
Codec ID : avc1
Codec ID/Info : Advanced Video Coding
Duration : 1 h 36 min
Bit rate : 2 500 kb/s
Width : 1 796 pixels
Height : 1 072 pixels
Display aspect ratio : 5:3
Frame rate mode : Constant
Frame rate : 23.976 (23976/1000) FPS
Color space : YUV
Chroma subsampling : 4:2:0
Bit depth : 8 bits
Scan type : Progressive
Bits/(Pixel*Frame) : 0.054
Stream size : 1.68 GiB (92%)
Writing library : x264 core 152 r2851M ba24899
Encoding settings : cabac=1 / ref=4 / deblock=1:-1:-1 / analyse=0x3:0x113 / me=umh / subme=9 / psy=1 / psy_rd=1.00:0.15 / mixed_ref=1 / me_range=24 / chroma_me=1 / trellis=2 / 8x8dct=1 / cqm=0 / deadzone=21,11 / fast_pskip=1 / chroma_qp_offset=-3 / threads=16 / lookahead_threads=4 / sliced_threads=0 / nr=0 / decimate=1 / interlaced=0 / bluray_compat=0 / constrained_intra=0 / bframes=3 / b_pyramid=2 / b_adapt=2 / b_bias=0 / direct=3 / weightb=1 / open_gop=0 / weightp=2 / keyint=250 / keyint_min=25 / scenecut=40 / intra_refresh=0 / rc_lookahead=50 / rc=2pass / mbtree=1 / bitrate=2500 / ratetol=1.0 / qcomp=0.60 / qpmin=0 / qpmax=69 / qpstep=4 / cplxblur=20.0 / qblur=0.5 / vbv_maxrate=31250 / vbv_bufsize=31250 / nal_hrd=none / filler=0 / ip_ratio=1.40 / aq=3:1.00
Encoded date : UTC 2019-06-04 17:46:41
Tagged date : UTC 2019-06-04 17:46:41
Codec configuration box : avcC

Audio
ID : 2
Format : AAC LC
Format/Info : Advanced Audio Codec Low Complexity
Codec ID : mp4a-40-2
Duration : 1 h 36 min
Duration_LastFrame : -11 ms
Bit rate mode : Constant
Bit rate : 224 kb/s
Channel(s) : 6 channels
Channel layout : C L R Ls Rs LFE
Sampling rate : 48.0 kHz
Frame rate : 46.875 FPS (1024 SPF)
Compression mode : Lossy
Stream size : 154 MiB (8%)
Language : English
Default : Yes
Alternate group : 1
Encoded date : UTC 2019-06-04 17:46:41
Tagged date : UTC 2019-06-04 17:46:41



回复下载:





游客,如果您要查看本帖隐藏内容请回复


本帖子中包含更多资源

您需要 登录 才可以下载或查看,没有帐号?立即注册

x
回复

使用道具 举报

发表于 2019-6-5 18:44:08 | 显示全部楼层
感谢楼主分享
回复 支持 反对

使用道具 举报

发表于 2019-6-5 18:54:37 | 显示全部楼层
thank you for your share
回复 支持 反对

使用道具 举报

发表于 2019-6-5 19:29:02 | 显示全部楼层
谢谢楼主的无私奉献。
回复 支持 反对

使用道具 举报

发表于 2019-6-5 19:37:19 | 显示全部楼层
感谢楼主分享
回复 支持 反对

使用道具 举报

发表于 2019-6-5 20:00:55 | 显示全部楼层
为啥看不见海报  感谢分享
回复 支持 反对

使用道具 举报

发表于 2019-6-5 20:11:40 | 显示全部楼层
顶顶顶顶顶顶
回复 支持 反对

使用道具 举报

发表于 2019-6-5 20:31:56 | 显示全部楼层
hhhghg哈哈哈哈狗狗很乖很乖

回复 支持 反对

使用道具 举报

发表于 2019-6-5 20:32:42 | 显示全部楼层
感谢分享谢谢
回复 支持 反对

使用道具 举报

发表于 2019-6-5 20:39:43 | 显示全部楼层

hhhghg哈哈哈哈狗狗很乖很乖
回复 支持 反对

使用道具 举报

您需要登录后才可以回帖 登录 | 立即注册

本版积分规则

快速回复 返回顶部 返回列表