CHD高清论坛

 找回密码
 立即注册

QQ登录

只需一步,快速开始

搜索
热搜: 活动 交友 discuz
查看: 1457|回复: 309

[科幻片] [致命勘探]Prospect.2018.1080p.BluRay.x264.DTS-HD.MA.5.1-FGT

  [复制链接]
发表于 2019-4-14 14:28:15 | 显示全部楼层 |阅读模式
电影海报

影片信息
◎译  名 致命勘探
◎片  名 Prospect
◎年  代 2018
◎产  地 美国
◎类  别 科幻
◎语  言 英语
◎上映日期 2018-03-10(西南偏南电影节)
◎IMDb评分 6.9/10 from 612 users
◎IMDb链接 http://www.imdb.com/title/tt7946422
◎豆瓣评分 5.0/10 from 371 users
◎豆瓣链接 https://movie.douban.com/subject/30149773/
◎时光评分 5.2/10 from 6 users
◎时光链接 http://movie.mtime.com/260647/
◎片  长 98分钟
◎导  演 Chris Caldwell / Zeek Earl
◎编  剧 Chris Caldwell / Zeek Earl
◎主  演 佩德罗·帕斯卡 Pedro Pascal
      杰伊·杜普拉斯 Jay Duplass
      Sophie Thatcher

内容简介
  一个少女和她父亲来到外星球勘察神秘矿石,但那座充满危险的森林里还有其他人,很快勘探变成了一场绝命逃亡。
截图预览


参数信息
  1. General
  2. Unique ID                      : 188785461172253693158109997941372849595 (0x8E06C1DCAFC2A1C89DA30E13B1658DBB)
  3. Complete name                  : E:\致命勘探\致命勘探.mkv
  4. Format                         : Matroska
  5. Format version                 : Version 4
  6. File size                      : 7.86 GiB
  7. Duration                       : 1 h 39 min
  8. Overall bit rate mode          : Variable
  9. Overall bit rate               : 11.3 Mb/s
  10. Movie name                     : Prospect.2018.1080p.BluRay.x264.DTS-HD.MA.5.1-FGT
  11. Encoded date                   : UTC 2019-04-03 17:16:35
  12. Writing application            : mkvmerge v32.0.0 ('Astral Progressions') 64-bit
  13. Writing library                : libebml v1.3.7 + libmatroska v1.5.0
  14. Cover                          : Yes
  15. Attachments                    : small_cover.jpg / small_cover_land.jpg / cover.jpg / cover_land.jpg

  16. Video
  17. ID                             : 1
  18. Format                         : AVC
  19. Format/Info                    : Advanced Video Codec
  20. Format profile                 : [email]High@L4.1[/email]
  21. Format settings                : CABAC / 4 Ref Frames
  22. Format settings, CABAC         : Yes
  23. Format settings, ReFrames      : 4 frames
  24. Codec ID                       : V_MPEG4/ISO/AVC
  25. Duration                       : 1 h 39 min
  26. Bit rate                       : 9 462 kb/s
  27. Width                          : 1 920 pixels
  28. Height                         : 1 016 pixels
  29. Display aspect ratio           : 1.890
  30. Frame rate mode                : Constant
  31. Frame rate                     : 23.976 (24000/1001) FPS
  32. Color space                    : YUV
  33. Chroma subsampling             : 4:2:0
  34. Bit depth                      : 8 bits
  35. Scan type                      : Progressive
  36. Bits/(Pixel*Frame)             : 0.202
  37. Stream size                    : 6.59 GiB (84%)
  38. Title                          : Prospect.2018.1080p.BluRay.x264.DTS-HD.MA.5.1-FGT
  39. Writing library                : x264 core 157 r2935 545de2f
  40. Encoding settings              : cabac=1 / ref=4 / deblock=1:1:1 / analyse=0x3:0x133 / me=umh / subme=8 / psy=1 / psy_rd=1.00:0.00 / mixed_ref=1 / me_range=16 / chroma_me=1 / trellis=1 / 8x8dct=1 / cqm=0 / deadzone=21,11 / fast_pskip=0 / chroma_qp_offset=-2 / threads=16 / lookahead_threads=2 / sliced_threads=0 / nr=0 / decimate=1 / interlaced=0 / bluray_compat=0 / constrained_intra=0 / bframes=3 / b_pyramid=2 / b_adapt=2 / b_bias=0 / direct=3 / weightb=1 / open_gop=0 / weightp=2 / keyint=250 / keyint_min=23 / scenecut=40 / intra_refresh=0 / rc_lookahead=50 / rc=2pass / mbtree=1 / bitrate=9462 / ratetol=1.0 / qcomp=0.60 / qpmin=0 / qpmax=69 / qpstep=4 / cplxblur=20.0 / qblur=0.5 / ip_ratio=1.40 / aq=1:1.00
  41. Default                        : Yes
  42. Forced                         : No

  43. Audio
  44. ID                             : 2
  45. Format                         : DTS XLL
  46. Format/Info                    : Digital Theater Systems
  47. Commercial name                : DTS-HD Master Audio
  48. Codec ID                       : A_DTS
  49. Duration                       : 1 h 39 min
  50. Bit rate mode                  : Variable
  51. Bit rate                       : 1 800 kb/s
  52. Channel(s)                     : 6 channels
  53. Channel layout                 : C L R Ls Rs LFE
  54. Sampling rate                  : 48.0 kHz
  55. Frame rate                     : 93.750 FPS (512 SPF)
  56. Bit depth                      : 16 bits
  57. Compression mode               : Lossless
  58. Stream size                    : 1.25 GiB (16%)
  59. Title                          : Prospect.2018.1080p.BluRay.x264.DTS-HD.MA.5.1-FGT
  60. Language                       : English
  61. Default                        : Yes
  62. Forced                         : No

  63. Menu
  64. 00:00:00.083                   : en:Chapter 01
  65. 00:13:03.365                   : en:Chapter 02
  66. 00:21:13.855                   : en:Chapter 03
  67. 00:35:12.193                   : en:Chapter 04
  68. 00:46:55.395                   : en:Chapter 05
  69. 01:00:59.739                   : en:Chapter 06
  70. 01:12:29.928                   : en:Chapter 07
  71. 01:27:07.805                   : en:Chapter 08
复制代码
下载地址

游客,如果您要查看本帖隐藏内容请回复


本帖子中包含更多资源

您需要 登录 才可以下载或查看,没有帐号?立即注册

x
回复

使用道具 举报

发表于 2019-4-14 16:04:49 | 显示全部楼层
感谢楼主分享
回复 支持 0 反对 1

使用道具 举报

发表于 2019-4-14 14:42:21 | 显示全部楼层
感谢楼主分享
回复 支持 反对

使用道具 举报

发表于 2019-4-14 14:48:19 | 显示全部楼层
谢谢楼主分享
回复 支持 反对

使用道具 举报

发表于 2019-4-14 15:07:53 | 显示全部楼层
谢楼主分享
回复 支持 反对

使用道具 举报

发表于 2019-4-14 15:25:10 | 显示全部楼层
谢谢楼主分享好资源
回复 支持 反对

使用道具 举报

发表于 2019-4-14 15:29:49 | 显示全部楼层
感谢楼主分享
回复 支持 反对

使用道具 举报

发表于 2019-4-14 15:30:53 | 显示全部楼层
谢谢CHD,越来越好

回复 支持 反对

使用道具 举报

发表于 2019-4-14 15:34:40 | 显示全部楼层
多谢楼主分享电影!
回复 支持 反对

使用道具 举报

发表于 2019-4-14 16:11:58 | 显示全部楼层
感谢楼主分享
回复 支持 反对

使用道具 举报

您需要登录后才可以回帖 登录 | 立即注册

本版积分规则

快速回复 返回顶部 返回列表