CHD高清论坛

 找回密码
 立即注册

QQ登录

只需一步,快速开始

搜索
热搜: 活动 交友 discuz
查看: 3789|回复: 559

[动作片] [讨债人]The.Debt.Collector.2018.1080p.BluRay.REMUX.AVC.DTS-HD.MA.5.1-FGT

  [复制链接]
发表于 2019-3-10 17:25:07 | 显示全部楼层 |阅读模式
电影海报

影片信息
◎译  名 讨债人/The Pay Up
◎片  名 The Debt Collector
◎年  代 2018
◎产  地 美国
◎类  别 动作/犯罪
◎语  言 英语
◎上映日期 2018-04-26(德国)/2018-06-05(美国)
◎IMDB评分 5.5/10 from 953 users
◎IMDB链接 http://www.imdb.com/title/tt7448180/
◎豆瓣评分 5.9/10 from 578 users
◎豆瓣链接 https://movie.douban.com/subject/27166013/
◎时光评分 6.0/10 from 24 users
◎时光链接 http://movie.mtime.com/255937/
◎导  演 杰西·约翰逊 Jesse V. Johnson
◎主  演 斯科特·阿金斯 Scott Adkins
      路易·曼迪勒 Louis Mandylor
      托尼·托德 Tony Todd

内容简介
    斯科特·阿金斯继《失忆格斗士》《野蛮狗》《三重威胁》和《意外杀手》之后第五次与导演杰西·约翰逊合作的犯罪动作片。
  弗兰奇(斯科特·阿金斯 Scott Adkins 饰演)最近面临着诸多债务问题:他在城中开设的武馆经营不善并且经常被人上门找麻烦,自己也可能因交不起房租而随时 无家可归,而爱情方面更是无暇顾及、毫无进展。于是弗兰奇打算铤而走险,接受了一份讨债人的工作,他需要冒着生命危险替雇主以暴力手段逼迫欠债人还债或施加压力,而和他搭档的是一位名字叫苏(路易斯·曼迪勒 Louis Mandylor 饰演)的前警署探员。于是这对看似奇怪的组合开着轿车,在一条逐渐失控的讨债道路上越走越远。

截图预览


参数信息
  1. General
  2. Unique ID                      : 66887513909882698877429601484442763119 (0x3252110C55BDEE148E438A644F04FF6F)
  3. Complete name                  : The.Debt.Collector.2018.1080p.BluRay.REMUX.AVC.DTS-HD.MA.5.1.mkv
  4. Format                         : Matroska
  5. Format version                 : Version 4
  6. File size                      : 16.4 GiB
  7. Duration                       : 1 h 35 min
  8. Overall bit rate mode          : Variable
  9. Overall bit rate               : 24.5 Mb/s
  10. Movie name                     : The.Debt.Collector.2018.1080p.BluRay.REMUX.AVC.DTS-HD.MA.5.1-FGT
  11. Encoded date                   : UTC 2018-04-19 16:54:24
  12. Writing application            : mkvmerge v21.0.0 ('Tardigrades Will Inherit The Earth') 64-bit
  13. Writing library                : libebml v1.3.5 + libmatroska v1.4.8
  14. Cover                          : Yes
  15. Attachments                    : cover_land.jpg / small_cover.jpg / small_cover_land.jpg / cover.jpg

  16. Video
  17. ID                             : 1
  18. Format                         : AVC
  19. Format/Info                    : Advanced Video Codec
  20. Format profile                 : [email]High@L4.1[/email]
  21. Format settings                : CABAC / 2 Ref Frames
  22. Format settings, CABAC         : Yes
  23. Format settings, ReFrames      : 2 frames
  24. Format settings, GOP           : M=1, N=5
  25. Codec ID                       : V_MPEG4/ISO/AVC
  26. Duration                       : 1 h 35 min
  27. Bit rate mode                  : Variable
  28. Bit rate                       : 22.2 Mb/s
  29. Maximum bit rate               : 30.2 Mb/s
  30. Width                          : 1 920 pixels
  31. Height                         : 1 080 pixels
  32. Display aspect ratio           : 16:9
  33. Frame rate mode                : Constant
  34. Frame rate                     : 23.976 (24000/1001) FPS
  35. Color space                    : YUV
  36. Chroma subsampling             : 4:2:0
  37. Bit depth                      : 8 bits
  38. Scan type                      : Progressive
  39. Bits/(Pixel*Frame)             : 0.447
  40. Stream size                    : 14.9 GiB (90%)
  41. Title                          : The.Debt.Collector.2018.1080p.BluRay.REMUX.AVC.DTS-HD.MA.5.1-FGT
  42. Language                       : English
  43. Default                        : No
  44. Forced                         : No

  45. Audio #1
  46. ID                             : 2
  47. Format                         : DTS XLL
  48. Format/Info                    : Digital Theater Systems
  49. Commercial name                : DTS-HD Master Audio
  50. Codec ID                       : A_DTS
  51. Duration                       : 1 h 35 min
  52. Bit rate mode                  : Variable
  53. Bit rate                       : 1 569 kb/s
  54. Channel(s)                     : 6 channels
  55. Channel layout                 : C L R Ls Rs LFE
  56. Sampling rate                  : 48.0 kHz
  57. Frame rate                     : 93.750 FPS (512 SPF)
  58. Bit depth                      : 16 bits
  59. Compression mode               : Lossless
  60. Stream size                    : 1.05 GiB (6%)
  61. Title                          : The.Debt.Collector.2018.1080p.BluRay.REMUX.AVC.DTS-HD.MA.5.1-FGT
  62. Language                       : English
  63. Default                        : Yes
  64. Forced                         : No

  65. Audio #2
  66. ID                             : 3
  67. Format                         : DTS
  68. Format/Info                    : Digital Theater Systems
  69. Codec ID                       : A_DTS
  70. Duration                       : 1 h 35 min
  71. Bit rate mode                  : Constant
  72. Bit rate                       : 768 kb/s
  73. Channel(s)                     : 6 channels
  74. Channel layout                 : C L R Ls Rs LFE
  75. Sampling rate                  : 48.0 kHz
  76. Frame rate                     : 93.750 FPS (512 SPF)
  77. Bit depth                      : 16 bits
  78. Compression mode               : Lossy
  79. Stream size                    : 527 MiB (3%)
  80. Title                          : The.Debt.Collector.2018.1080p.BluRay.REMUX.AVC.DTS-HD.MA.5.1-FGT
  81. Language                       : English
  82. Default                        : No
  83. Forced                         : No

  84. Menu
  85. 00:00:00.000                   : en:Chapter 01
  86. 00:02:05.083                   : en:Chapter 02
  87. 00:11:30.314                   : en:Chapter 03
  88. 00:21:04.930                   : en:Chapter 04
  89. 00:32:42.377                   : en:Chapter 05
  90. 00:42:33.592                   : en:Chapter 06
  91. 00:47:42.860                   : en:Chapter 07
  92. 00:53:10.270                   : en:Chapter 08
  93. 01:02:11.185                   : en:Chapter 09
  94. 01:09:34.587                   : en:Chapter 10
  95. 01:24:34.652                   : en:Chapter 11
  96. 01:32:49.897                   : en:Chapter 12
复制代码
下载地址

游客,如果您要查看本帖隐藏内容请回复




本帖子中包含更多资源

您需要 登录 才可以下载或查看,没有帐号?立即注册

x
回复

使用道具 举报

发表于 2019-3-10 17:27:13 | 显示全部楼层
感谢楼主分享资源
回复 支持 反对

使用道具 举报

发表于 2019-3-10 17:54:05 | 显示全部楼层
的确是个好片子,楼主辛苦lol
回复 支持 反对

使用道具 举报

发表于 2019-3-10 17:56:07 | 显示全部楼层

谢谢楼主分享
回复 支持 反对

使用道具 举报

发表于 2019-3-10 17:59:58 | 显示全部楼层
感恩樓主無私分享
回复 支持 反对

使用道具 举报

发表于 2019-3-10 18:07:19 | 显示全部楼层
谢谢楼主的分享
回复 支持 反对

使用道具 举报

发表于 2019-3-10 18:15:04 | 显示全部楼层
谢谢楼主的分享
回复 支持 反对

使用道具 举报

发表于 2019-3-10 18:23:36 | 显示全部楼层
谢谢楼主分享,顶一个
回复 支持 反对

使用道具 举报

发表于 2019-3-10 18:25:58 | 显示全部楼层
感谢楼主分享
回复 支持 反对

使用道具 举报

发表于 2019-3-10 18:25:59 | 显示全部楼层
[讨债人]The.Debt.Collector.2018.1080p.BluRay.REMUX.AVC.DTS-HD.MA.5.1-FGT [修
回复 支持 反对

使用道具 举报

您需要登录后才可以回帖 登录 | 立即注册

本版积分规则

快速回复 返回顶部 返回列表