CHD高清论坛

 找回密码
 立即注册

QQ登录

只需一步,快速开始

搜索
热搜: 活动 交友 discuz
查看: 2926|回复: 517

[动作片] [银行大劫案]The.Bank.Job.2008.1080p.BluRay.DTS-HD.MA.7.1.x264-beAst

  [复制链接]
发表于 2019-3-9 17:03:17 | 显示全部楼层 |阅读模式
电影海报

影片信息
◎译  名 银行大劫案/爆窃英行/银行劫案/爆窃英格兰央行/伦敦金融街大劫案/玩命追缉:贝克街大劫案
◎片  名 The Bank Job
◎年  代 2008
◎国  家 英国
◎类  别 犯罪/剧情/惊悚
◎语  言 英语
◎上映日期 2008-02-28(英国)
◎IMDb评分 7.3/10 from 144,778 users
◎IMDb链接 http://www.imdb.com/title/tt0200465/
◎豆瓣评分 7.5/10 from 27,910 users
◎豆瓣链接 http://movie.douban.com/subject/1889152/
◎时光评分 7.3/10 from 1,685 users
◎时光链接 http://movie.mtime.com/67355/
◎片  长 111 分钟
◎导  演 罗杰·唐纳森 Roger Donaldson
◎主  演 杰森·斯坦森 Jason Statham
      萨弗蓉·布罗斯 Saffron Burrows
      斯蒂芬·坎贝尔·莫尔 Stephen Campbell Moore
      丹尼尔·梅斯 Daniel Mays
      詹姆斯·福克纳 James Faulkner
      阿尔基·戴维 Alki David
      迈克尔·吉普森 Michael Jibson
      Georgia Taylor

内容简介
  1971年,黑人激进组织领导迈克尔X因贩毒被控告,但因他一年前取得了英国皇室成员玛格丽特公主的私密照片并以此要挟官方而被开释。英国军情五处工作人员提姆(Richard Lintern 饰)受命取回收藏在伦敦某银行的这批照片。

  提姆物色到贩毒女子玛婷(Saffron Burrows 饰),要挟她抢劫银行来为自己取得照片。玛婷很快同以泰瑞(Jason Statham 饰)为首的几个半职业罪犯或新人组成了计划挖地道劫掠保险库的团伙。

  泰瑞等人如愿将保险库洗劫,但赃物却让他们坐立不安:涉及皇室成员的私密照片、银行家行贿官员的账本、高官们不可告人的龌龊爱好……由于一位无线电爱好者无意间听到了他们作案时的对话内容,此案掀起轩然大波,泰瑞等人陷入了各种势力争夺的中心,他只能借助手上的证据苦苦周旋……

截图预览


参数信息
  1. Video
  2. ID : 1
  3. Format : AVC
  4. Format/Info : Advanced Video Codec
  5. Format profile : [email]High@L4.1[/email]
  6. Format settings, CABAC : Yes
  7. Format settings, ReFrames : 4 frames
  8. Codec ID : V_MPEG4/ISO/AVC
  9. Duration : 1h 51mn
  10. Bit rate : 13.3 Mbps
  11. Width : 1 920 pixels
  12. Height : 1 080 pixels
  13. Display aspect ratio : 16:9
  14. Frame rate mode : Constant
  15. Frame rate : 24.000 fps
  16. Color space : YUV
  17. Chroma subsampling : 4:2:0
  18. Bit depth : 8 bits
  19. Scan type : Progressive
  20. Bits/(Pixel*Frame) : 0.267
  21. Stream size : 10.1 GiB (88%)
  22. Writing library : x264 core 148 r2597kMod e86f3a1
  23. Encoding settings : cabac=1 / ref=4 / deblock=1:-2:-2 / analyse=0x3:0x133 / me=umh / subme=11 / psy=1 / fade_compensate=0.00 / psy_rd=1.00:0.00 / mixed_ref=1 / me_range=32 / chroma_me=1 / trellis=2 / 8x8dct=1 / cqm=0 / deadzone=21,11 / fast_pskip=0 / chroma_qp_offset=-2 / threads=12 / lookahead_threads=2 / sliced_threads=0 / nr=0 / decimate=1 / interlaced=0 / bluray_compat=0 / constrained_intra=0 / fgo=0 / bframes=9 / b_pyramid=2 / b_adapt=2 / b_bias=0 / direct=3 / weightb=1 / open_gop=0 / weightp=2 / keyint=250 / keyint_min=24 / scenecut=40 / intra_refresh=0 / rc_lookahead=60 / rc=2pass / mbtree=0 / bitrate=13300 / ratetol=1.0 / qcomp=0.60 / qpmin=0 / qpmax=69 / qpstep=4 / cplxblur=20.0 / qblur=0.5 / vbv_maxrate=62500 / vbv_bufsize=78125 / nal_hrd=none / filler=0 / ip_ratio=1.40 / pb_ratio=1.30 / aq=1:0.80
  24. Language : English
  25. Default : Yes
  26. Forced : No
  27. Color range : Limited
  28. Color primaries : BT.709
  29. Transfer characteristics : BT.709
  30. Matrix coefficients : BT.709

  31. Audio
  32. ID : 2
  33. Format : DTS
  34. Format/Info : Digital Theater Systems
  35. Mode : 16
  36. Format settings, Endianness : Big
  37. Codec ID : A_DTS
  38. Duration : 1h 51mn
  39. Bit rate mode : Constant
  40. Bit rate : 1 509 Kbps
  41. Channel(s) : 6 channels
  42. Channel positions : Front: L C R, Side: L R, LFE
  43. Sampling rate : 48.0 KHz
  44. Bit depth : 24 bits
  45. Compression mode : Lossy
  46. Stream size : 1.18 GiB (10%)
  47. Language : English
  48. Default : Yes
  49. Forced : No

  50. Text
  51. ID : 3
  52. Format : UTF-8
  53. Codec ID : S_TEXT/UTF8
  54. Codec ID/Info : UTF-8 Plain Text
  55. Language : English
  56. Default : No
  57. Forced : No

  58. Menu
  59. 00:00:00.000 : en:Chapter 1
  60. 00:10:56.000 : en:Chapter 2
  61. 00:18:59.000 : en:Chapter 3
  62. 00:24:23.000 : en:Chapter 4
  63. 00:36:19.000 : en:Chapter 5
  64. 00:45:43.000 : en:Chapter 6
  65. 00:54:06.000 : en:Chapter 7
  66. 00:59:48.000 : en:Chapter 8
  67. 01:05:47.000 : en:Chapter 9
  68. 01:15:15.000 : en:Chapter 10
  69. 01:30:43.000 : en:Chapter 11
  70. 01:45:23.500 : en:Chapter 12
复制代码
下载地址

游客,如果您要查看本帖隐藏内容请回复



本帖子中包含更多资源

您需要 登录 才可以下载或查看,没有帐号?立即注册

x
回复

使用道具 举报

发表于 2019-3-9 17:06:03 | 显示全部楼层
感谢楼主分享
回复 支持 反对

使用道具 举报

发表于 2019-3-9 17:06:40 | 显示全部楼层
有组织的感觉真好,感谢分享
回复 支持 反对

使用道具 举报

发表于 2019-3-9 17:10:23 | 显示全部楼层
感谢楼主分享
回复 支持 反对

使用道具 举报

发表于 2019-3-9 17:26:22 | 显示全部楼层
感谢楼主分享
回复 支持 反对

使用道具 举报

发表于 2019-3-9 17:38:22 | 显示全部楼层
谢谢楼主分享!
回复 支持 反对

使用道具 举报

发表于 2019-3-9 17:52:26 | 显示全部楼层
期待已久,谢谢!
回复 支持 反对

使用道具 举报

发表于 2019-3-9 18:04:08 | 显示全部楼层
表面看上去很可疑的男子出现在她面前时,她的
回复 支持 反对

使用道具 举报

发表于 2019-3-9 18:04:44 | 显示全部楼层
啊手动阀手动阀阿斯蒂芬阿斯蒂芬阿斯蒂芬阿斯顿
回复 支持 反对

使用道具 举报

发表于 2019-3-9 18:07:22 | 显示全部楼层
感谢楼主分享
回复 支持 反对

使用道具 举报

您需要登录后才可以回帖 登录 | 立即注册

本版积分规则

快速回复 返回顶部 返回列表