CHD高清论坛

 找回密码
 立即注册

QQ登录

只需一步,快速开始

搜索
热搜: 活动 交友 discuz
查看: 1181|回复: 261

[动作片] [铁雨]steel.rain.2017.1080p.bluray.x264-jrp

  [复制链接]
发表于 2019-3-9 10:49:14 | 显示全部楼层 |阅读模式
电影海报

影片信息
◎译  名 铁雨 / Steel Rain / 钢铁雨
◎片  名 강철비
◎年  代 2017
◎产  地 韩国
◎类  别 剧情 / 动作
◎语  言 韩语 / 汉语普通话 / 日语 / 英语
◎上映日期 2017-12-14(韩国)
◎IMDb评分 7.1/10 from 2327 users
◎IMDb链接 http://www.imdb.com/title/tt6769508
◎豆瓣评分 8.2/10 from 57855 users
◎豆瓣链接 https://movie.douban.com/subject/26863778/
◎时光评分 7.5/10 from 561 users
◎时光链接 http://movie.mtime.com/237456/
◎片  长 139分钟
◎导  演 杨宇硕 Woo-seok Yang
◎编  剧 杨宇硕 Woo-seok Yang
◎主  演 郑雨盛 Woo-sung Jung
      郭度沅 Do-Won Kwak
      金甲洙 Kap-su Kim
      金义城 Eui-sung Kim
      李璟荣 Kyeong-yeong Lee
      赵宇镇 Woo-jin Jo
      朴善英 Seon-yeong Park
      金芝荷 Ji-ho Kim
      张铉诚 Hyeong-seong Jang
      郑元中 Won-jung Jeong
      元真雅 Won Jin-ah
      金亨宗 Kim Hyeong-jong
      罗光旭 Jonathan Na
      金明坤  Myung-gon Kim
      朴恩惠 Eun-hye Park
      玄奉植 Hyun Bong-shik
      金基賢 김기현
      金泰汉 Kim Tae-han
      克里斯汀·达尔顿 Kristen Dalton
      安德烈亚斯·弗龙克 Andreas Fronk
      丹尼尔·乔伊·奥尔布赖特 Daniel Joey Albright

内容简介
  原朝鲜侦察总局特工严铁雨(郑雨盛 饰)受到征召前去位于朝韩边境的开城工业园区刺杀意图政变的朝鲜高官,不料却在开城遇袭,迫使他带着重伤昏迷的朝鲜最高领导人逃往韩国,局势突变,朝鲜半岛站在了核战争的边缘,中美日皆卷入乱局,他只能与韩国外交安全首席秘书郭哲宇(郭度沅 饰)合作,将半岛从核战边缘拉回
截图预览


参数信息
  1. General
  2. Unique ID                      : 324344702572934784810847386981894331416 (0xF402847ACE21C4439CF3097D1D821C18)
  3. Complete name                  : Steel.Rain.2017.1080p.Bluray.x264.mkv
  4. Format                         : Matroska
  5. Format version                 : Version 4
  6. File size                      : 8.74 GiB
  7. Duration                       : 2 h 19 min
  8. Overall bit rate               : 8 951 kb/s
  9. Encoded date                   : UTC 2019-02-17 20:13:23
  10. Writing application            : mkvmerge v31.0.0 ('Dolores In A Shoestand') 64-bit
  11. Writing library                : libebml v1.3.6 + libmatroska v1.4.9

  12. Video
  13. ID                             : 1
  14. Format                         : AVC
  15. Format/Info                    : Advanced Video Codec
  16. Format profile                 : [email]High@L4.1[/email]
  17. Format settings                : CABAC / 5 Ref Frames
  18. Format settings, CABAC         : Yes
  19. Format settings, ReFrames      : 5 frames
  20. Codec ID                       : V_MPEG4/ISO/AVC
  21. Duration                       : 2 h 19 min
  22. Bit rate                       : 8 310 kb/s
  23. Width                          : 1 920 pixels
  24. Height                         : 808 pixels
  25. Display aspect ratio           : 2.40:1
  26. Frame rate mode                : Constant
  27. Frame rate                     : 23.976 (24000/1001) FPS
  28. Color space                    : YUV
  29. Chroma subsampling             : 4:2:0
  30. Bit depth                      : 8 bits
  31. Scan type                      : Progressive
  32. Bits/(Pixel*Frame)             : 0.223
  33. Stream size                    : 8.11 GiB (93%)
  34. Writing library                : x264 core 157 r2935 545de2f
  35. Encoding settings              : cabac=1 / ref=5 / deblock=1:-3:-3 / analyse=0x3:0x113 / me=umh / subme=7 / psy=1 / psy_rd=1.00:0.00 / mixed_ref=1 / me_range=16 / chroma_me=1 / trellis=1 / 8x8dct=1 / cqm=0 / deadzone=21,11 / fast_pskip=0 / chroma_qp_offset=-2 / threads=9 / lookahead_threads=1 / sliced_threads=0 / nr=0 / decimate=1 / interlaced=0 / bluray_compat=0 / constrained_intra=0 / bframes=3 / b_pyramid=2 / b_adapt=1 / b_bias=0 / direct=3 / weightb=1 / open_gop=0 / weightp=2 / keyint=240 / keyint_min=23 / scenecut=40 / intra_refresh=0 / rc_lookahead=50 / rc=2pass / mbtree=1 / bitrate=8310 / ratetol=1.0 / qcomp=0.60 / qpmin=0 / qpmax=69 / qpstep=4 / cplxblur=20.0 / qblur=0.5 / vbv_maxrate=62500 / vbv_bufsize=78125 / nal_hrd=none / filler=0 / ip_ratio=1.40 / aq=1:0.70
  36. Default                        : Yes
  37. Forced                         : No

  38. Audio
  39. ID                             : 2
  40. Format                         : AC-3
  41. Format/Info                    : Audio Coding 3
  42. Commercial name                : Dolby Digital
  43. Codec ID                       : A_AC3
  44. Duration                       : 2 h 19 min
  45. Bit rate mode                  : Constant
  46. Bit rate                       : 640 kb/s
  47. Channel(s)                     : 6 channels
  48. Channel layout                 : L R C LFE Ls Rs
  49. Sampling rate                  : 48.0 kHz
  50. Frame rate                     : 31.250 FPS (1536 SPF)
  51. Bit depth                      : 16 bits
  52. Compression mode               : Lossy
  53. Stream size                    : 640 MiB (7%)
  54. Language                       : Korean
  55. Service kind                   : Complete Main
  56. Default                        : Yes
  57. Forced                         : No

  58. Text
  59. ID                             : 3
  60. Format                         : UTF-8
  61. Codec ID                       : S_TEXT/UTF8
  62. Codec ID/Info                  : UTF-8 Plain Text
  63. Duration                       : 2 h 14 min
  64. Bit rate                       : 45 b/s
  65. Count of elements              : 1455
  66. Stream size                    : 44.9 KiB (0%)
  67. Language                       : English
  68. Default                        : Yes
  69. Forced                         : No

  70. Menu
  71. 00:00:00.000                   : :Chapter 01
  72. 00:07:33.995                   : :Chapter 02
  73. 00:17:04.941                   : :Chapter 03
  74. 00:26:45.813                   : :Chapter 04
  75. 00:36:24.391                   : :Chapter 05
  76. 00:45:35.399                   : :Chapter 06
  77. 00:54:25.471                   : :Chapter 07
  78. 01:04:03.423                   : :Chapter 08
  79. 01:13:53.471                   : :Chapter 09
  80. 01:23:46.104                   : :Chapter 10
  81. 01:31:35.532                   : :Chapter 11
  82. 01:40:00.203                   : :Chapter 12
  83. 01:48:28.961                   : :Chapter 13
  84. 01:56:02.289                   : :Chapter 14
  85. 02:04:32.507                   : :Chapter 15
  86. 02:11:04.148                   : :Chapter 16
复制代码
下载地址

游客,如果您要查看本帖隐藏内容请回复



本帖子中包含更多资源

您需要 登录 才可以下载或查看,没有帐号?立即注册

x
回复

使用道具 举报

发表于 2019-3-9 10:50:26 | 显示全部楼层
回复 支持 反对

使用道具 举报

发表于 2019-3-9 10:55:29 | 显示全部楼层
钢铁雨11111111111
回复 支持 反对

使用道具 举报

发表于 2019-3-9 10:58:33 | 显示全部楼层
steel.rain.2017.1080p.bluray.x264-jrp
回复 支持 反对

使用道具 举报

发表于 2019-3-9 10:59:04 | 显示全部楼层
steel.rain.2017.1080p.bluray.x264-jrp
回复 支持 反对

使用道具 举报

发表于 2019-3-9 11:01:40 | 显示全部楼层
感谢楼主分享
回复 支持 反对

使用道具 举报

发表于 2019-3-9 11:17:55 | 显示全部楼层
感谢楼主分享
回复 支持 反对

使用道具 举报

发表于 2019-3-9 11:49:14 | 显示全部楼层

感谢楼主分享
回复 支持 反对

使用道具 举报

您需要登录后才可以回帖 登录 | 立即注册

本版积分规则

快速回复 返回顶部 返回列表