CHD高清论坛

 找回密码
 立即注册

QQ登录

只需一步,快速开始

搜索
热搜: 活动 交友 discuz
查看: 1696|回复: 167

[剧情片] 机器之血.2017.1080p.HC.WEBRip.x264.AAC2.0-SHITBOX

  [复制链接]
发表于 2018-4-16 10:15:17 | 显示全部楼层 |阅读模式
◎片  名 机器之血
◎年  代 2017
◎产  地 中国大陆
◎类  别 剧情/动作/科幻
◎语  言 汉语普通话
◎上映日期 2017-12-22(中国大陆)
◎IMDb评分  5.5/10 from 766 users
◎豆瓣评分 5.1/10 from 12,545 users
◎片  长 110分钟
◎导  演 张立嘉 Leo Zhang
◎主  演 成龙 Jackie Chan
      罗志祥 Show Luo
      欧阳娜娜 Nana Ouyang
      夏侯琪誉 Qiyu Xiahou
      卡兰·马尔韦 Callan Mulvey
      泰丝·哈乌布里奇 Tess Haubrich
      吉娜·卡拉诺 Gina Carano

◎简  介

  2007年,Dr.James在半岛军火商的支持下研究生化人。研究过程中,生化人安德烈发生基因突变大开杀戒,将半岛军火商杀害,并控制其组织,接管生化人的研究。Dr.James侥幸逃生,只好寻求警方的保护。特工林东(成龙 饰)不得以离开生命垂危的小女儿西西,接受证人保护任务...
  十三年后,一本科幻小说《机器之血》的出版引出了黑衣生化人组织,神秘骇客李森(罗志祥 饰)(被杀害的半岛军火商的儿子),以及隐姓埋名的林东,三股力量都开始接近一个“普通”女孩Nancy(欧阳娜娜 饰)的生活,想要得到她身上的秘密。而黑衣人幕后受伤隐藏多年的安德烈也再次出手,在多次缠斗之后终于抓走Nancy。林东和李森,不得不以身犯险一同前去解救,关键时刻却发现李森竟然是被杀害的半岛军火商的儿子,生化人的实验记录也落入了李森之手......

Video
ID                                       : 1
Format                                   : AVC
Format/Info                              : Advanced Video Codec
Format profile                           : High@L4
Format settings                          : CABAC / 4 Ref Frames
Format settings, CABAC                   : Yes
Format settings, ReFrames                : 4 frames
Codec ID                                 : avc1
Codec ID/Info                            : Advanced Video Coding
Duration                                 : 1 h 49 min
Bit rate                                 : 2 596 kb/s
Width                                    : 1 920 pixels
Height                                   : 816 pixels
Display aspect ratio                     : 2.35:1
Frame rate mode                          : Constant
Frame rate                               : 25.000 FPS
Color space                              : YUV
Chroma subsampling                       : 4:2:0
Bit depth                                : 8 bits
Scan type                                : Progressive
Bits/(Pixel*Frame)                       : 0.066
Stream size                              : 1.98 GiB (92%)
Title                                    : Bleeding.Steel.2017.1080p.HC.WEBRip.x264.AAC2.0-SHITBOX

Audio
ID                                       : 2
Format                                   : AAC
Format/Info                              : Advanced Audio Codec
Format profile                           : LC
Codec ID                                 : mp4a-40-2
Duration                                 : 1 h 49 min
Bit rate mode                            : Constant
Bit rate                                 : 224 kb/s
Channel(s)                               : 2 channels
Channel positions                        : Front: L R
Sampling rate                            : 48.0 kHz
Frame rate                               : 46.875 FPS (1024 SPF)
Compression mode                         : Lossy
Stream size                              : 175 MiB (8%)
Title                                    : Bleeding.Steel.2017.1080p.HC.WEBRip.x264.AAC2.0-SHITBOX
Default                                  : Yes
Alternate group                          : 1





回复下载:




游客,如果您要查看本帖隐藏内容请回复

本帖子中包含更多资源

您需要 登录 才可以下载或查看,没有帐号?立即注册

x
回复

使用道具 举报

发表于 2018-4-16 10:28:25 | 显示全部楼层
谢谢楼主分享精彩电影
回复 支持 反对

使用道具 举报

发表于 2018-4-16 10:30:53 | 显示全部楼层
谢谢楼主分享谢谢楼主分享
回复 支持 反对

使用道具 举报

发表于 2018-4-16 11:10:27 | 显示全部楼层
感谢楼主分享
回复 支持 反对

使用道具 举报

发表于 2018-4-16 11:24:57 | 显示全部楼层

谢谢楼主分享谢谢楼主分享
回复 支持 反对

使用道具 举报

发表于 2018-4-16 11:28:37 | 显示全部楼层
感谢论坛分享好资源
回复 支持 反对

使用道具 举报

发表于 2018-4-16 11:44:45 | 显示全部楼层
支持,支持下楼主
回复 支持 反对

使用道具 举报

发表于 2018-4-16 12:02:01 | 显示全部楼层

感谢楼主分享精彩电影!!
回复 支持 反对

使用道具 举报

发表于 2018-4-16 12:19:14 | 显示全部楼层
谢谢楼主分享精彩电影
回复 支持 反对

使用道具 举报

发表于 2018-4-16 12:21:49 | 显示全部楼层
谢谢分享,你是好人
回复 支持 反对

使用道具 举报

您需要登录后才可以回帖 登录 | 立即注册

本版积分规则

快速回复 返回顶部 返回列表