CHD高清论坛

 找回密码
 立即注册

QQ登录

只需一步,快速开始

搜索
热搜: 活动 交友 discuz
查看: 440|回复: 29

没有人的文明.2016.1080p.WEBRip.DDP2.0.x264-NTb

[复制链接]
发表于 2018-4-16 10:13:57 | 显示全部楼层 |阅读模式
◎译  名 没有人的文明
◎年  代 2016
◎产  地 奥地利
◎类  别 纪录片
◎语  言 无对白
◎上映日期 2016-02-12(柏林电影节)
◎IMDb评分  7.1/10 from 568 users
◎豆瓣评分 8.0/10 from 431 users
◎片  长 94分钟
◎导  演 尼古劳斯·葛哈特 Nikolaus Geyrhalter

◎简  介

  近年科学界、出版界,与纪录片频道打龙通,推出“没有人的地球”末世想像。来自奥地利的葛哈特大概认为电视太细、CG 太假,讨论太消费浅薄,于是以在地真实拍摄,体现心中的荒凉情状。起点是日本,先叫我们一起沉思福岛──仓促撤出后的办公室、公园、学校、商店,又定又长的镜头,风雨光暗下阅读和感受。大不同你在荷里活大片碰到的新巴洛克式人工破坏,反击其实是大自然。视觉慢慢抵达未来,文明的颓垣败瓦,不在问:人类哪里去了?而是问:我们究竟走到哪个地步啊?

Video
ID                                       : 1
Format                                   : AVC
Format/Info                              : Advanced Video Codec
Format profile                           : High@L4
Format settings                          : CABAC / 4 Ref Frames
Format settings, CABAC                   : Yes
Format settings, ReFrames                : 4 frames
Codec ID                                 : V_MPEG4/ISO/AVC
Duration                                 : 1 h 34 min
Bit rate mode                            : Variable
Bit rate                                 : 3 145 kb/s
Maximum bit rate                         : 15.0 Mb/s
Width                                    : 1 920 pixels
Height                                   : 1 040 pixels
Display aspect ratio                     : 1.85:1
Frame rate mode                          : Constant
Frame rate                               : 24.000 FPS
Color space                              : YUV
Chroma subsampling                       : 4:2:0
Bit depth                                : 8 bits
Scan type                                : Progressive
Bits/(Pixel*Frame)                       : 0.066
Stream size                              : 2.06 GiB (93%)
Default                                  : Yes
Forced                                   : No
Color range                              : Limited
Color primaries                          : BT.709
Transfer characteristics                 : BT.709
Matrix coefficients                      : BT.709

Audio
ID                                       : 2
Format                                   : E-AC-3
Format/Info                              : Enhanced Audio Coding 3
Codec ID                                 : A_EAC3
Duration                                 : 1 h 33 min
Bit rate mode                            : Constant
Bit rate                                 : 224 kb/s
Channel(s)                               : 2 channels
Channel positions                        : Front: L R
Sampling rate                            : 48.0 kHz
Frame rate                               : 187.500 FPS (256 SPF)
Compression mode                         : Lossy
Stream size                              : 151 MiB (7%)
Language                                 : English
Service kind                             : Complete Main
Default                                  : Yes
Forced                                   : No

Text
ID                                       : 3
Format                                   : UTF-8
Codec ID                                 : S_TEXT/UTF8
Codec ID/Info                            : UTF-8 Plain Text
Duration                                 : 1 h 33 min
Bit rate                                 : 11 b/s
Count of elements                        : 408
Stream size                              : 7.65 KiB (0%)
Language                                 : English
Default                                  : No
Forced                                   : No





回复下载:




游客,如果您要查看本帖隐藏内容请回复

本帖子中包含更多资源

您需要 登录 才可以下载或查看,没有帐号?立即注册

x
回复

使用道具 举报

发表于 2018-4-16 11:25:40 | 显示全部楼层
感谢论坛分享好资源
回复 支持 反对

使用道具 举报

发表于 2018-4-16 11:46:06 | 显示全部楼层
这个纪录片不错,下来看看
回复 支持 反对

使用道具 举报

发表于 2018-4-16 12:49:33 | 显示全部楼层
谢谢楼主分享
回复 支持 反对

使用道具 举报

发表于 2018-4-16 12:51:51 | 显示全部楼层

谢谢楼主分享
回复 支持 反对

使用道具 举报

发表于 2018-4-16 12:52:12 | 显示全部楼层
感谢论坛分享好资源
回复 支持 反对

使用道具 举报

发表于 2018-4-16 13:19:23 | 显示全部楼层
感谢楼主分享!!!
回复 支持 反对

使用道具 举报

发表于 2018-4-16 13:41:05 | 显示全部楼层
谢谢楼主分享
回复 支持 反对

使用道具 举报

发表于 2018-4-16 16:46:54 | 显示全部楼层
感谢楼主分享
回复 支持 反对

使用道具 举报

发表于 2018-4-16 19:42:37 | 显示全部楼层
感谢高清论坛
回复 支持 反对

使用道具 举报

您需要登录后才可以回帖 登录 | 立即注册

本版积分规则

快速回复 返回顶部 返回列表