CHD高清论坛

 找回密码
 立即注册

QQ登录

只需一步,快速开始

搜索
热搜: 活动 交友 discuz
查看: 982|回复: 151

[剧情片] 马戏之王.2017.1080p.BluRay.x264.DTS-HD.MA.7.1-FGT

  [复制链接]
发表于 2018-4-12 09:44:28 | 显示全部楼层 |阅读模式
⊙译名 马戏之王/大秀之王/大娱乐家(港/台)/The Greatest Showman On Earth
⊙年代 2017
⊙产地 美国
⊙类别 剧情/歌舞/传记
⊙语言 英语
⊙上映 2017-12-20(美国)/2018-02-01(中国大陆)
⊙评分 7.9/10 from 85,330 users
⊙豆瓣 7.9/10 from 62,670 users
⊙片长 105分钟
⊙导演 迈克尔·格雷西 Michael Gracey
⊙编剧 珍妮·比克 Jenny Bicks
    比尔·康顿 Bill Condon
⊙主演 休·杰克曼 Hugh Jackman
    米歇尔·威廉姆斯 Michelle Williams
    扎克·埃夫隆 Zac Efron
    赞达亚 Zendaya
    丽贝卡·弗格森 Rebecca Ferguson
    奥丝汀·约翰森 Austyn Johnson
    卡梅伦·丝蕾 Cameron Seely
    基拉·塞特尔 Keala Settle
    萨姆·汉弗莱 Sam Humphrey
    叶海亚·阿卜杜勒-迈丁 Yahya Abdul-Mateen II
    埃里克·安德森 Eric Anderson
    伊利斯·鲁宾 Ellis Rubin
    斯凯勒·杜恩 Skylar Dunn
    丹尼尔·埃维里奇 Daniel Everidge
    拉杜·斯平格尔 Radu Spinghel
    小森优作 Yusaku Komori
    丹尼尔·松 Danial Son
    保罗·斯帕克斯 Paul Sparks
    威尔·斯文森 Will Swenson

    ⊙标签 歌舞 | 音乐 | 美国 | 传记 | 励志 | 马戏团 | 剧情 | 2017

    ⊙简介

      《马戏之王》取材自真人真事,好莱坞全能巨星休·杰克曼在片中饰演“马戏团鼻祖”、传奇人物P.T.巴纳姆。故事讲述了身处社会底层的巴纳姆依靠自己无穷想象力和锲而不舍的精神,从经营博物馆到一手开创世界上第一家马戏团的故事。巴纳姆的奇思妙想最开始并不被大众所认可,几乎没人花钱欣赏,他的家人好友帮他度过一次次绝境。在经历了一系列挫折、与合作伙伴的分歧之后,秉持梦想的他终于成为全美甚至全世界最为知名的“造梦大师”。

    ⊙获奖

      第90届奥斯卡金像奖 (2018)
      最佳原创歌曲(提名) 本吉·帕塞克/贾斯廷·保罗

      第75届金球奖 (2018)
      电影类最佳音乐/喜剧片(提名)
      电影类音乐/喜剧片最佳男主角(提名) 休·杰克曼
      电影类最佳原创歌曲

      第23届美国评论家选择电影奖 (2018)
      最佳歌曲(提名)

VideoID                                       : 1Format                                   : AVCFormat/Info                              : Advanced Video CodecFormat profile                           : High@L4.1Format settings                          : CABAC / 5 Ref FramesFormat settings, CABAC                   : YesFormat settings, ReFrames                : 5 framesCodec ID                                 : V_MPEG4/ISO/AVCDuration                                 : 1 h 44 minBit rate                                 : 8 941 kb/sWidth                                    : 1 920 pixelsHeight                                   : 800 pixelsDisplay aspect ratio                     : 2.40:1Frame rate mode                          : ConstantFrame rate                               : 23.976 (24000/1001) FPSColor space                              : YUVChroma subsampling                       : 4:2:0Bit depth                                : 8 bitsScan type                                : ProgressiveBits/(Pixel*Frame)                       : 0.243Stream size                              : 6.55 GiB (63%)Title                                    : The.Greatest.Showman.2017.1080p.BluRay.x264.DTS-HD.MA.7.1-FGTWriting library                          : x264 core 155 r2901 7d0ff22Encoding settings                        : cabac=1 / ref=5 / deblock=1:0:0 / analyse=0x3:0x133 / me=umh / subme=7 / psy=1 / psy_rd=1.00:0.00 / mixed_ref=1 / me_range=16 / chroma_me=1 / trellis=1 / 8x8dct=1 / cqm=0 / deadzone=21,11 / fast_pskip=0 / chroma_qp_offset=-2 / threads=24 / lookahead_threads=4 / sliced_threads=0 / nr=0 / decimate=1 / interlaced=0 / bluray_compat=0 / constrained_intra=0 / bframes=3 / b_pyramid=2 / b_adapt=1 / b_bias=0 / direct=1 / weightb=1 / open_gop=0 / weightp=2 / keyint=250 / keyint_min=23 / scenecut=40 / intra_refresh=0 / rc_lookahead=40 / rc=2pass / mbtree=1 / bitrate=8941 / ratetol=1.0 / qcomp=0.60 / qpmin=0 / qpmax=69 / qpstep=4 / cplxblur=20.0 / qblur=0.5 / ip_ratio=1.40 / aq=1:1.00Language                                 : EnglishDefault                                  : YesForced                                   : NoAudioID                                       : 2Format                                   : DTSFormat/Info                              : Digital Theater SystemsFormat profile                           : MA / ES Matrix / CoreCodec ID                                 : A_DTSDuration                                 : 1 h 44 minBit rate mode                            : Variable / Constant / ConstantBit rate                                 : 5 243 kb/s / 1 509 kb/s / 1 509 kb/sChannel(s)                               : 8 channels / 7 channels / 6 channelsChannel positions                        : Front: L C R, Side: L R, Back: L R, LFE / Front: L C R, Side: L R, Back: C, LFE / Front: L C R, Side: L R, LFESampling rate                            : 48.0 kHzFrame rate                               : 93.750 FPS (512 SPF)Bit depth                                : 24 bitsCompression mode                         : Lossless / Lossy / LossyStream size                              : 3.84 GiB (37%)Title                                    : The.Greatest.Showman.2017.1080p.BluRay.x264.DTS-HD.MA.7.1-FGTLanguage                                 : EnglishDefault                                  : YesForced                                   : NoText #1ID                                       : 3Format                                   : UTF-8Codec ID                                 : S_TEXT/UTF8Codec ID/Info                            : UTF-8 Plain TextDuration                                 : 1 h 32 minBit rate                                 : 43 b/sCount of elements                        : 949Stream size                              : 29.5 KiB (0%)Title                                    : English-SRTLanguage                                 : EnglishDefault                                  : YesForced                                   : NoText #2ID                                       : 4Format                                   : PGSMuxing mode                              : zlibCodec ID                                 : S_HDMV/PGSCodec ID/Info                            : Picture based subtitle format used on BDs/HD-DVDsDuration                                 : 1 h 43 minBit rate                                 : 51.5 kb/sCount of elements                        : 3728Stream size                              : 38.1 MiB (0%)Title                                    : English-PGSLanguage                                 : EnglishDefault                                  : NoForced                                   : No





回复下载:




游客,如果您要查看本帖隐藏内容请回复

本帖子中包含更多资源

您需要 登录 才可以下载或查看,没有帐号?立即注册

x
回复

使用道具 举报

发表于 2018-4-12 09:51:50 | 显示全部楼层
有组织的感觉真好,请收下我的膝盖。谢谢楼主分享资源。
回复 支持 反对

使用道具 举报

发表于 2018-4-12 10:08:30 | 显示全部楼层
thanks a lot
回复 支持 反对

使用道具 举报

发表于 2018-4-12 10:22:13 | 显示全部楼层

感谢楼主分享好资源
回复 支持 反对

使用道具 举报

发表于 2018-4-12 10:23:16 | 显示全部楼层
谢谢楼主分享
回复 支持 反对

使用道具 举报

发表于 2018-4-12 10:31:23 | 显示全部楼层
有组织的感觉真好,请收下我的膝盖。谢谢楼主分享资源。
回复 支持 反对

使用道具 举报

发表于 2018-4-12 10:32:08 | 显示全部楼层
马戏之王取材自真人真事
回复 支持 反对

使用道具 举报

发表于 2018-4-12 10:32:45 | 显示全部楼层

非常感谢楼主
回复 支持 反对

使用道具 举报

您需要登录后才可以回帖 登录 | 立即注册

本版积分规则

快速回复 返回顶部 返回列表