CHD高清论坛

 找回密码
 立即注册

QQ登录

只需一步,快速开始

搜索
热搜: 活动 交友 discuz
查看: 474|回复: 61

[剧情片] 谋杀疑云/猜猜猜谁是凶手.2019.1080p.NF.WEBRip.x265.10bit.HDR.DDP5.1-MZABI

[复制链接]
发表于 2019-6-20 18:26:01 | 显示全部楼层 |阅读模式


◎译  名 谋杀疑云 / 猜猜猜谁是凶手(港) / 谋杀之谜 / 谋杀案 / 谋杀疑案
◎片  名 Murder Mystery
◎年  代 2019
◎产  地 美国
◎类  别 剧情 / 喜剧 / 动作 / 爱情 / 悬疑
◎语  言 英语
◎上映日期 2019-06-14(美国)
◎IMDb评分 6.4/10 from 30 users
◎IMDb链接 http://www.imdb.com/title/tt1618434
◎豆瓣评分 0/10 from 0 users
◎豆瓣链接 https://movie.douban.com/subject/15077774/
◎导  演 凯尔·纽瓦切克 Kyle Newacheck
◎编  剧 詹姆斯·范德比尔特 James Vanderbilt
◎主  演 詹妮弗·安妮斯顿 Jennifer Aniston
      亚当·桑德勒 Adam Sandler
      杰玛·阿特登 Gemma Arterton
      卢克·伊万斯 Luke Evans
      丹尼·伯恩 Dany Boon
      忽那汐里 Kutsuna Shiori
      奥拉维尔·达里·奥拉夫松 ólafur Darri ólafsson
      杰姬·桑德勒 Jackie Sandler
      特伦斯·斯坦普 Terence Stamp
      约翰·卡尼 John Kani
      大卫·威廉姆斯 David Walliams
      阿迪勒·阿赫塔尔 Adeel Akhtar
      苏芙·布莱德肖 Sufe Bradshaw
      路易斯·赫拉尔多·门德斯 Luis Gerardo Méndez
      埃里克·格里芬 Erik Griffin
      维克托·特平 Victor Turpin
      妮可·兰德尔·约翰逊 Nicole Randall Johnson
      埃莱娜·卡多纳 Hélène Cardona
      丹妮拉·桑德福德 Daniela Sandiford
      彼得·阿佩塞拉 Peter Arpesella
      拉斐尔·格罗斯-哈维 Raphael Grosz-Harvey
      安德烈·多伦特 Andrea Dolente


◎标  签 喜剧 | 詹妮弗·安妮斯顿 | 美国 | 2019 | Netflix | 犯罪 | 美国电影 | 电影

◎简  介

  卢克·伊万斯加盟亚当·桑德勒与詹妮弗·安妮斯顿主演的Netflix新喜剧片《谋杀疑案》(Murder Mystery),桑德勒和安妮斯顿饰演夫妻,男方是一名纽约警察,夫妻去欧洲度假,在飞机上遇到一个神秘男人(伊万斯),邀请他们去参加一名老年亿万富翁的家庭聚会,当这名富翁被谋杀后,两人成为头号嫌疑犯。
这是桑德勒第6次与Netflix合作,安妮斯顿是第一次。Kyle Newacheck(《工作狂》)执导,James Vanderbilt(《超凡蜘蛛侠1/2》《十二宫》)编写剧本。

Video
ID : 1
Format : HEVC
Format/Info : High Efficiency Video Coding
Commercial name : HDR10
Format profile : Main 10@L4@Main
Codec ID : V_MPEGH/ISO/HEVC
Duration : 1 h 37 min
Bit rate : 5 353 kb/s
Width : 1 920 pixels
Height : 1 080 pixels
Display aspect ratio : 16:9
Frame rate mode : Constant
Frame rate : 24.000 FPS
Color space : YUV
Chroma subsampling : 4:2:0 (Type 2)
Bit depth : 10 bits
Bits/(Pixel*Frame) : 0.108
Stream size : 3.63 GiB (89%)
Default : Yes
Forced : No
Color range : Limited
Color primaries : BT.2020
Transfer characteristics : PQ
Matrix coefficients : BT.2020 non-constant
Mastering display color primaries : Display P3
Mastering display luminance : min: 0.0001 cd/m2, max: 1000 cd/m2
Maximum Content Light Level : 1115 cd/m2
Maximum Frame-Average Light Level : 167 cd/m2

Audio
ID : 2
Format : E-AC-3
Format/Info : Enhanced AC-3
Commercial name : Dolby Digital Plus
Codec ID : A_EAC3
Duration : 1 h 37 min
Bit rate mode : Constant
Bit rate : 640 kb/s
Channel(s) : 6 channels
Channel layout : L R C LFE Ls Rs
Sampling rate : 48.0 kHz
Frame rate : 31.250 FPS (1536 SPF)
Compression mode : Lossy
Stream size : 448 MiB (11%)
Title : English
Language : English
Service kind : Complete Main
Default : Yes
Forced : No

Text #1
ID : 3
Format : UTF-8
Codec ID : S_TEXT/UTF8
Codec ID/Info : UTF-8 Plain Text
Duration : 1 h 28 min
Bit rate : 106 b/s
Count of elements : 2036
Stream size : 69.3 KiB (0%)
Title : English [SDH]
Language : English
Default : No
Forced : No

Text #2
ID : 4
Format : UTF-8
Codec ID : S_TEXT/UTF8
Codec ID/Info : UTF-8 Plain Text
Duration : 1 h 36 min
Bit rate : 74 b/s
Count of elements : 1688
Stream size : 52.6 KiB (0%)
Title : Castilian
Language : Spanish
Default : No
Forced : No

Text #3
ID : 5
Format : UTF-8
Codec ID : S_TEXT/UTF8
Codec ID/Info : UTF-8 Plain Text
Duration : 1 h 36 min
Bit rate : 76 b/s
Count of elements : 1689
Stream size : 54.1 KiB (0%)
Title : Spanish
Language : Spanish
Default : No
Forced : No

Text #4
ID : 6
Format : UTF-8
Codec ID : S_TEXT/UTF8
Codec ID/Info : UTF-8 Plain Text
Duration : 1 h 36 min
Bit rate : 83 b/s
Count of elements : 1711
Stream size : 59.1 KiB (0%)
Title : French
Language : French
Default : No
Forced : No

Text #5
ID : 7
Format : UTF-8
Codec ID : S_TEXT/UTF8
Codec ID/Info : UTF-8 Plain Text
Duration : 1 h 36 min
Bit rate : 78 b/s
Count of elements : 1659
Stream size : 55.4 KiB (0%)
Title : German
Language : German
Default : No
Forced : No

Text #6
ID : 8
Format : UTF-8
Codec ID : S_TEXT/UTF8
Codec ID/Info : UTF-8 Plain Text
Duration : 1 h 36 min
Bit rate : 80 b/s
Count of elements : 1650
Stream size : 56.8 KiB (0%)
Title : Italian
Language : Italian
Default : No
Forced : No

Text #7
ID : 9
Format : UTF-8
Codec ID : S_TEXT/UTF8
Codec ID/Info : UTF-8 Plain Text
Duration : 1 h 36 min
Bit rate : 79 b/s
Count of elements : 1686
Stream size : 56.2 KiB (0%)
Title : Portuguese
Language : Portuguese
Default : No
Forced : No

Text #8
ID : 10
Format : UTF-8
Codec ID : S_TEXT/UTF8
Codec ID/Info : UTF-8 Plain Text
Duration : 1 h 36 min
Bit rate : 76 b/s
Count of elements : 1748
Stream size : 53.9 KiB (0%)
Title : Brazilian Portuguese
Language : Portuguese
Default : No
Forced : No

Text #9
ID : 11
Format : UTF-8
Codec ID : S_TEXT/UTF8
Codec ID/Info : UTF-8 Plain Text
Duration : 1 h 36 min
Bit rate : 73 b/s
Count of elements : 1597
Stream size : 52.1 KiB (0%)
Title : Polish
Language : Polish
Default : No
Forced : No

Text #10
ID : 12
Format : UTF-8
Codec ID : S_TEXT/UTF8
Codec ID/Info : UTF-8 Plain Text
Duration : 1 h 36 min
Bit rate : 81 b/s
Count of elements : 1740
Stream size : 57.7 KiB (0%)
Title : Turkish
Language : Turkish
Default : No
Forced : No

Text #11
ID : 13
Format : UTF-8
Codec ID : S_TEXT/UTF8
Codec ID/Info : UTF-8 Plain Text
Duration : 1 h 36 min
Bit rate : 74 b/s
Count of elements : 1402
Stream size : 52.8 KiB (0%)
Title : Swedish
Language : Swedish
Default : No
Forced : No

Text #12
ID : 14
Format : UTF-8
Codec ID : S_TEXT/UTF8
Codec ID/Info : UTF-8 Plain Text
Duration : 1 h 36 min
Bit rate : 73 b/s
Count of elements : 1685
Stream size : 51.9 KiB (0%)
Title : Danish
Language : Danish
Default : No
Forced : No

Text #13
ID : 15
Format : UTF-8
Codec ID : S_TEXT/UTF8
Codec ID/Info : UTF-8 Plain Text
Duration : 1 h 36 min
Bit rate : 61 b/s
Count of elements : 999
Stream size : 43.7 KiB (0%)
Title : Finnish
Language : Finnish
Default : No
Forced : No

Text #14
ID : 16
Format : UTF-8
Codec ID : S_TEXT/UTF8
Codec ID/Info : UTF-8 Plain Text
Duration : 1 h 36 min
Bit rate : 70 b/s
Count of elements : 1340
Stream size : 49.5 KiB (0%)
Title : Dutch
Language : Dutch
Default : No
Forced : No

Text #15
ID : 17
Format : UTF-8
Codec ID : S_TEXT/UTF8
Codec ID/Info : UTF-8 Plain Text
Duration : 1 h 36 min
Bit rate : 73 b/s
Count of elements : 1450
Stream size : 51.7 KiB (0%)
Title : Norwegian
Language : Norwegian
Default : No
Forced : No

Text #16
ID : 18
Format : UTF-8
Codec ID : S_TEXT/UTF8
Codec ID/Info : UTF-8 Plain Text
Duration : 1 h 36 min
Bit rate : 118 b/s
Count of elements : 1674
Stream size : 83.9 KiB (0%)
Title : Russian
Language : Russian
Default : No
Forced : No

Text #17
ID : 19
Format : UTF-8
Codec ID : S_TEXT/UTF8
Codec ID/Info : UTF-8 Plain Text
Duration : 1 h 36 min
Bit rate : 87 b/s
Count of elements : 1777
Stream size : 61.7 KiB (0%)
Title : Hungarian
Language : Hungarian
Default : No
Forced : No

Text #18
ID : 20
Format : UTF-8
Codec ID : S_TEXT/UTF8
Codec ID/Info : UTF-8 Plain Text
Duration : 1 h 36 min
Bit rate : 130 b/s
Count of elements : 1733
Stream size : 91.8 KiB (0%)
Title : Greek
Language : Greek
Default : No
Forced : No

Text #19
ID : 21
Format : UTF-8
Codec ID : S_TEXT/UTF8
Codec ID/Info : UTF-8 Plain Text
Duration : 1 h 36 min
Bit rate : 126 b/s
Count of elements : 1644
Stream size : 88.9 KiB (0%)
Title : Hebrew
Language : Hebrew
Default : No
Forced : No

Text #20
ID : 22
Format : UTF-8
Codec ID : S_TEXT/UTF8
Codec ID/Info : UTF-8 Plain Text
Duration : 1 h 36 min
Bit rate : 150 b/s
Count of elements : 1784
Stream size : 106 KiB (0%)
Title : Arabic
Language : Arabic
Default : No
Forced : No

Text #21
ID : 23
Format : UTF-8
Codec ID : S_TEXT/UTF8
Codec ID/Info : UTF-8 Plain Text
Duration : 1 h 36 min
Bit rate : 95 b/s
Count of elements : 1708
Stream size : 67.5 KiB (0%)
Title : Romanian
Language : Romanian
Default : No
Forced : No

Text #22
ID : 24
Format : UTF-8
Codec ID : S_TEXT/UTF8
Codec ID/Info : UTF-8 Plain Text
Duration : 1 h 36 min
Bit rate : 75 b/s
Count of elements : 1706
Stream size : 53.2 KiB (0%)
Title : Czech
Language : Czech
Default : No
Forced : No

Text #23
ID : 25
Format : UTF-8
Codec ID : S_TEXT/UTF8
Codec ID/Info : UTF-8 Plain Text
Duration : 1 h 36 min
Bit rate : 238 b/s
Count of elements : 1775
Stream size : 168 KiB (0%)
Title : Hindi
Language : Hindi
Default : No
Forced : No

Text #24
ID : 26
Format : UTF-8
Codec ID : S_TEXT/UTF8
Codec ID/Info : UTF-8 Plain Text
Duration : 1 h 36 min
Bit rate : 77 b/s
Count of elements : 1765
Stream size : 54.4 KiB (0%)
Title : Indonesian
Language : Indonesian
Default : No
Forced : No

Text #25
ID : 27
Format : UTF-8
Codec ID : S_TEXT/UTF8
Codec ID/Info : UTF-8 Plain Text
Duration : 1 h 36 min
Bit rate : 114 b/s
Count of elements : 1776
Stream size : 80.4 KiB (0%)
Title : Vietnamese
Language : Vietnamese
Default : No
Forced : No

Text #26
ID : 28
Format : UTF-8
Codec ID : S_TEXT/UTF8
Codec ID/Info : UTF-8 Plain Text
Duration : 1 h 36 min
Bit rate : 232 b/s
Count of elements : 1779
Stream size : 164 KiB (0%)
Title : Thai
Language : Thai
Default : No
Forced : No

Text #27
ID : 29
Format : UTF-8
Codec ID : S_TEXT/UTF8
Codec ID/Info : UTF-8 Plain Text
Duration : 1 h 36 min
Bit rate : 105 b/s
Count of elements : 1765
Stream size : 74.3 KiB (0%)
Title : Korean
Language : Korean
Default : No
Forced : No

Text #28
ID : 30
Format : UTF-8
Codec ID : S_TEXT/UTF8
Codec ID/Info : UTF-8 Plain Text
Duration : 1 h 36 min
Bit rate : 95 b/s
Count of elements : 1776
Stream size : 67.1 KiB (0%)
Title : Chinese (Simplified)
Language : Chinese
Default : No
Forced : No

Text #29
ID : 31
Format : UTF-8
Codec ID : S_TEXT/UTF8
Codec ID/Info : UTF-8 Plain Text
Duration : 1 h 36 min
Bit rate : 83 b/s
Count of elements : 1774
Stream size : 59.1 KiB (0%)
Title : Chinese (Traditional)
Language : Chinese
Default : No
Forced : No

Text #30
ID : 32
Format : UTF-8
Codec ID : S_TEXT/UTF8
Codec ID/Info : UTF-8 Plain Text
Duration : 1 h 27 min
Bit rate : 90 b/s
Count of elements : 1866
Stream size : 57.5 KiB (0%)
Title : Japanese
Language : Japanese
Default : No
Forced : No





回复下载:





游客,如果您要查看本帖隐藏内容请回复


本帖子中包含更多资源

您需要 登录 才可以下载或查看,没有帐号?立即注册

x
回复

使用道具 举报

发表于 2019-6-20 18:34:23 | 显示全部楼层
感谢分享好电影
回复 支持 反对

使用道具 举报

发表于 2019-6-20 18:46:17 | 显示全部楼层
谢谢楼主分享电影
回复 支持 反对

使用道具 举报

发表于 2019-6-20 19:05:28 | 显示全部楼层
感谢发布好电影
回复 支持 反对

使用道具 举报

发表于 2019-6-20 19:16:30 | 显示全部楼层
斑竹回来啦,好耶!发片的大大越多越好。有组织的感觉真好,请收下我的膝盖。感谢楼主发布佳片。
回复 支持 反对

使用道具 举报

发表于 2019-6-20 19:44:26 | 显示全部楼层
谢谢楼主分享
回复 支持 反对

使用道具 举报

发表于 2019-6-20 20:17:54 | 显示全部楼层
谢楼主分享。。。。。。。。。。。。。。。。。。。。。。。。
回复 支持 反对

使用道具 举报

发表于 2019-6-20 21:52:17 | 显示全部楼层
各种合集视频 点击进入》》
回复 支持 反对

使用道具 举报

发表于 2019-6-20 21:53:00 | 显示全部楼层
各种合集视频 点击进入》》
回复 支持 反对

使用道具 举报

发表于 2019-6-20 22:07:22 | 显示全部楼层
谢谢楼主了
回复 支持 反对

使用道具 举报

您需要登录后才可以回帖 登录 | 立即注册

本版积分规则

快速回复 返回顶部 返回列表