CHD高清论坛

 找回密码
 立即注册

QQ登录

只需一步,快速开始

搜索
热搜: 活动 交友 discuz
查看: 944|回复: 180

[剧情片] 何以为家.2018.BluRay.1080p.DTS.x264-CHD

  [复制链接]
发表于 2019-6-18 16:47:51 | 显示全部楼层 |阅读模式

◎译  名 何以为家 / Cafarnaúm / Capernaum / Capharnaüm / 我想有个家(台) / 星仔打官司(港) / 迦百农
◎片  名 كفرناحوم
◎年  代 2018
◎产  地 黎巴嫩 / 法国 / 美国
◎类  别 剧情
◎语  言 阿拉伯语 / 阿姆哈拉语
◎上映日期 2018-05-17(戛纳电影节) / 2018-09-20(黎巴嫩) / 2019-04-29(中国大陆)
◎IMDb评分  8.5/10 from 20305 users
◎豆瓣评分 9.0/10 from 235826 users
◎片  长 126分钟
◎导  演 娜丁·拉巴基 Nadine Labaki
◎编  剧 娜丁·拉巴基 Nadine Labaki / 吉哈德·霍加里 Jihad Hojeily / 米歇尔·凯斯沃尼 Michelle Keserwany / 乔治斯·哈巴兹 Georges Khabbaz / 哈立德·穆扎纳 Khaled Mouzanar
◎主  演 扎因·拉费阿 Zain al-Rafeea
      约丹诺斯·希费罗 Yordanos Shiferaw
      博鲁瓦蒂夫·特雷杰·班科尔 Boluwatife Treasure Bankole
      卡萨尔·艾尔·哈达德 Kawsar Al Haddad
      法迪·尤瑟夫 Fadi Yousef
      海塔·塞德拉·伊扎姆 Haita 'Cedra' Izzam
      阿拉·乔什涅 Alaa Chouchnieh
      娜丁·拉巴基 Nadine Labaki
      埃利亚斯·库利 Elias Khoury
      努尔·艾尔·侯赛尼 Nour El Husseini


◎标  签 人性 | 儿童 | 社会 | 难民 | 成长 | 黎巴嫩 | 家庭 | 剧情

◎简  介  

  法庭上,十二岁的男孩赞恩向法官状告他的亲生父母,原因是,他们给了他生命。是什么样的经历让一个孩子做出如此不可思议的举动?故事中,赞恩的父母在无力抚养和教育的状况下依然不停生育,作为家中的长子赞恩,弱小的肩膀承担了无数生活的重压。当妹妹被强行卖给商贩为妻时,赞恩愤怒离家,之后遇到一对没有合法身份的母子,相互扶持勉强生活。然而生活并没有眷顾赞恩,重重磨难迫使他做出了令人震惊的举动……

◎获奖情况  

  第91届奥斯卡金像奖(2019)
  最佳外语片(提名)

  第71届戛纳电影节(2018)
  主竞赛单元 金棕榈奖(提名) 娜丁·拉巴基
  主竞赛单元 评审团奖

  第76届金球奖(2019)
  电影类 最佳外语片(提名)

  第72届英国电影学院奖(2019)
  电影奖 最佳非英语片(提名) 娜丁·拉巴基 / 哈立德·穆扎纳

  第44届法国凯撒电影奖(2019)
  最佳外语片(提名)

  第66届美国音效剪辑协会奖(2019)
  金卷轴奖 最佳外语片音效剪辑(提名)

  第24届美国评论家选择电影奖(2019)
  最佳外语片(提名)

  第21届英国独立电影奖(2018)
  最佳外国独立电影(提名) 娜丁·拉巴基

  第17届华盛顿影评人协会奖(2018)
  最佳外语片(提名)

  第31届芝加哥影评人协会奖(2018)
  最佳外语片(提名)

  第30届芝加哥影评人协会奖(2017)
  最佳外语片(提名)
General
Unique ID                      : 86156017965938723710625388313011248421 (0x40D10BA52A62D9D63E2B49BE22EF5D25)
Complete name                  : D:\下载\Capharnaum.2018.BluRay.1080p.DTS.x264-CHD\Capharnaum.2018.BluRay.1080p.DTS.x264-CHD.mkv
Format                         : Matroska
Format version                 : Version 4
File size                      : 10.7 GiB
Duration                       : 2 h 6 min
Overall bit rate               : 12.1 Mb/s
Encoded date                   : UTC 2019-02-28 04:33:25
Writing application            : mkvmerge v28.1.0 ('Morning Child') 64-bit
Writing library                : libebml v1.3.6 + libmatroska v1.4.9

Video
ID                             : 1
Format                         : AVC
Format/Info                    : Advanced Video Codec
Format profile                 : High@L4.1
Format settings                : CABAC / 4 Ref Frames
Format settings, CABAC         : Yes
Format settings, ReFrames      : 4 frames
Codec ID                       : V_MPEG4/ISO/AVC
Duration                       : 2 h 6 min
Bit rate                       : 10.6 Mb/s
Width                          : 1 920 pixels
Height                         : 808 pixels
Display aspect ratio           : 2.40:1
Frame rate mode                : Constant
Frame rate                     : 23.976 (24000/1001) FPS
Color space                    : YUV
Chroma subsampling             : 4:2:0
Bit depth                      : 8 bits
Scan type                      : Progressive
Bits/(Pixel*Frame)             : 0.285
Stream size                    : 9.36 GiB (87%)
Writing library                : x264 core 157 r2935 545de2f
Encoding settings              : cabac=1 / ref=4 / deblock=1:-3:-3 / analyse=0x3:0x133 / me=umh / subme=10 / psy=1 / psy_rd=1.00:0.00 / mixed_ref=1 / me_range=32 / chroma_me=1 / trellis=2 / 8x8dct=1 / cqm=0 / deadzone=21,11 / fast_pskip=0 / chroma_qp_offset=-2 / threads=12 / lookahead_threads=3 / sliced_threads=0 / nr=0 / decimate=1 / interlaced=0 / bluray_compat=0 / constrained_intra=0 / bframes=12 / b_pyramid=2 / b_adapt=2 / b_bias=0 / direct=3 / weightb=1 / open_gop=0 / weightp=2 / keyint=300 / keyint_min=24 / scenecut=40 / intra_refresh=0 / rc=crf / mbtree=0 / crf=20.0 / qcomp=0.60 / qpmin=0 / qpmax=69 / qpstep=4 / ip_ratio=1.40 / pb_ratio=1.30 / aq=3:0.80
Default                        : Yes
Forced                         : No

Audio
ID                             : 2
Format                         : DTS
Format/Info                    : Digital Theater Systems
Codec ID                       : A_DTS
Duration                       : 2 h 6 min
Bit rate mode                  : Constant
Bit rate                       : 1 509 kb/s
Channel(s)                     : 6 channels
Channel layout                 : C L R Ls Rs LFE
Sampling rate                  : 48.0 kHz
Frame rate                     : 93.750 FPS (512 SPF)
Bit depth                      : 24 bits
Compression mode               : Lossy
Stream size                    : 1.33 GiB (12%)
Language                       : Arabic
Default                        : Yes
Forced                         : No

Text #1
ID                             : 3
Format                         : PGS
Muxing mode                    : zlib
Codec ID                       : S_HDMV/PGS
Codec ID/Info                  : Picture based subtitle format used on BDs/HD-DVDs
Duration                       : 1 h 59 min
Bit rate                       : 28.7 kb/s
Count of elements              : 2398
Stream size                    : 24.4 MiB (0%)
Language                       : Chinese
Default                        : Yes
Forced                         : No

Text #2
ID                             : 4
Format                         : PGS
Muxing mode                    : zlib
Codec ID                       : S_HDMV/PGS
Codec ID/Info                  : Picture based subtitle format used on BDs/HD-DVDs
Duration                       : 1 h 59 min
Bit rate                       : 29.2 kb/s
Count of elements              : 2398
Stream size                    : 24.9 MiB (0%)
Language                       : Chinese
Default                        : No
Forced                         : No

Text #3
ID                             : 5
Format                         : PGS
Muxing mode                    : zlib
Codec ID                       : S_HDMV/PGS
Codec ID/Info                  : Picture based subtitle format used on BDs/HD-DVDs
Duration                       : 1 h 59 min
Bit rate                       : 16.9 kb/s
Count of elements              : 2398
Stream size                    : 14.4 MiB (0%)
Language                       : Chinese
Default                        : No
Forced                         : No

Text #4
ID                             : 6
Format                         : PGS
Muxing mode                    : zlib
Codec ID                       : S_HDMV/PGS
Codec ID/Info                  : Picture based subtitle format used on BDs/HD-DVDs
Duration                       : 1 h 59 min
Bit rate                       : 17.5 kb/s
Count of elements              : 2398
Stream size                    : 14.9 MiB (0%)
Language                       : Chinese
Default                        : No
Forced                         : No



回复下载:





游客,如果您要查看本帖隐藏内容请回复


本帖子中包含更多资源

您需要 登录 才可以下载或查看,没有帐号?立即注册

x
回复

使用道具 举报

发表于 2019-6-18 17:12:45 | 显示全部楼层
谢谢楼主分享
回复 支持 反对

使用道具 举报

发表于 2019-6-18 17:50:34 | 显示全部楼层
感谢楼主分享
回复 支持 反对

使用道具 举报

发表于 2019-6-18 19:37:48 | 显示全部楼层
Thx for sharing!
回复 支持 反对

使用道具 举报

发表于 2019-6-18 20:56:29 | 显示全部楼层
谢谢分享,终于有好点的版本了
回复 支持 反对

使用道具 举报

发表于 2019-6-18 21:25:20 | 显示全部楼层
非常的感谢楼主,
回复 支持 反对

使用道具 举报

发表于 2019-6-18 21:39:23 | 显示全部楼层
感谢楼主分享!
回复 支持 反对

使用道具 举报

发表于 2019-6-18 21:52:11 | 显示全部楼层
谢谢楼主的无私奉献。
回复 支持 反对

使用道具 举报

发表于 2019-6-18 22:07:03 | 显示全部楼层
好东西支持下
回复 支持 反对

使用道具 举报

您需要登录后才可以回帖 登录 | 立即注册

本版积分规则

快速回复 返回顶部 返回列表