CHD高清论坛

 找回密码
 立即注册

QQ登录

只需一步,快速开始

搜索
热搜: 活动 交友 discuz
查看: 2644|回复: 367

[剧情片] [无境之兽]Beasts.Of.No.Nation.2015.1080p.WEBRip.x264.DD5.1-FGT

  [复制链接]
发表于 2019-4-14 13:42:56 | 显示全部楼层 |阅读模式
本帖最后由 remon 于 2019-4-14 13:50 编辑
电影海报

影片信息
◎译  名 无境之兽/没有国度的野兽
◎片  名 Beasts of No Nation
◎年  代 2015
◎国  家 美国
◎类  型 剧情/战争
◎语  言 英语
◎上映日期 2015-09-03(威尼斯电影节)/2015-10-16(美国)
◎IMDb评分 7.9/10 from 3,568 users
◎IMDb链接 http://www.imdb.com/title/tt1365050
◎豆瓣评分 7.8/10 from 9,286 users
◎豆瓣链接 https://movie.douban.com/subject/3445457/
◎时光评分 8.0/10 from 315 users
◎时光链接 http://movie.mtime.com/215117/
◎时  长 2h 16mn
◎导  演 凯瑞·福永
◎主  演 伊德里斯·艾尔巴
      Emmanuel Affadzi ...Dike
      Ricky Adelayitor ...Village Constable
      Andrew Adote ...Ecomod 2nd Lieutenant
      Vera Nyarkoah Antwi ...Little Sister
      Ama K. Abebrese ...Mother
      Kobina Amissah-Sam ...Father
      Francis Weddey ...Big Brother
      Fred Nii Amugi ...Pastor
      John Arthur ...Angry Bush Taxi Driver
      Grace Nortey ...Old Witch Woman
      Emmary Brown ...Grandfather
      Nataliah Andoh ...BBC Host
      Matthew Mpoke Bigg ...BBC Correspondent
      Nana Mensah ...Young Girl  

内容简介
  影片讲述了一个发生在西非的故事,主角是一个成长于非洲的普通男孩。他的童年受到了战争带来的无尽创伤,他的父亲在战争中丧生令他脆弱无比。在他无意间加入了一群游击队之后,他对其中的一位指挥官产生了强烈的依赖感情。随着时间推移,这个男孩成长成了一位他未曾想象过的完全不同的冷酷战士。
截图预览


参数信息
  1. Video
  2. ID                                       : 1
  3. Format                                   : AVC
  4. Format/Info                              : Advanced Video Codec
  5. Format profile                           : [email]High@L4.1[/email]
  6. Format settings, CABAC                   : Yes
  7. Format settings, ReFrames                : 5 frames
  8. Codec ID                                 : V_MPEG4/ISO/AVC
  9. Duration                                 : 2h 16mn
  10. Bit rate                                 : 8 300 Kbps
  11. Width                                    : 1 920 pixels
  12. Height                                   : 808 pixels
  13. Display aspect ratio                     : 2.40:1
  14. Frame rate mode                          : Constant
  15. Frame rate                               : 23.976 fps
  16. Color space                              : YUV
  17. Chroma subsampling                       : 4:2:0
  18. Bit depth                                : 8 bits
  19. Scan type                                : Progressive
  20. Bits/(Pixel*Frame)                       : 0.223
  21. Stream size                              : 7.61 GiB (91%)
  22. Title                                    : Beasts.Of.No.Nation.2015.1080p.WEBRip.x264.DD5.1-FGT
  23. Writing library                          : x264 core 148 r2597 e86f3a1
  24. Encoding settings                        : cabac=1 / ref=5 / deblock=1:-2:-1 / analyse=0x3:0x133 / me=umh / subme=9 / psy=1 / psy_rd=1.00:0.15 / mixed_ref=1 / me_range=16 / chroma_me=1 / trellis=2 / 8x8dct=1 / cqm=0 / deadzone=21,11 / fast_pskip=1 / chroma_qp_offset=-3 / threads=12 / lookahead_threads=2 / sliced_threads=0 / nr=0 / decimate=1 / interlaced=0 / bluray_compat=0 / constrained_intra=0 / bframes=3 / b_pyramid=2 / b_adapt=2 / b_bias=0 / direct=3 / weightb=1 / open_gop=0 / weightp=2 / keyint=240 / keyint_min=23 / scenecut=40 / intra_refresh=0 / rc_lookahead=60 / rc=abr / mbtree=1 / bitrate=8300 / ratetol=1.0 / qcomp=0.60 / qpmin=0 / qpmax=69 / qpstep=4 / vbv_maxrate=62500 / vbv_bufsize=78125 / nal_hrd=none / filler=0 / ip_ratio=1.40 / aq=3:1.00
  25. Language                                 : English
  26. Default                                  : Yes
  27. Forced                                   : No
  28. Color range                              : Limited
  29. Color primaries                          : BT.709
  30. Transfer characteristics                 : BT.709
  31. Matrix coefficients                      : BT.709

  32. Audio
  33. ID                                       : 2
  34. Format                                   : AC-3
  35. Format/Info                              : Audio Coding 3
  36. Mode extension                           : CM (complete main)
  37. Format settings, Endianness              : Big
  38. Codec ID                                 : A_AC3
  39. Duration                                 : 2h 16mn
  40. Bit rate mode                            : Constant
  41. Bit rate                                 : 640 Kbps
  42. Channel(s)                               : 6 channels
  43. Channel positions                        : Front: L C R, Side: L R, LFE
  44. Sampling rate                            : 48.0 KHz
  45. Compression mode                         : Lossy
  46. Delay relative to video                  : 6ms
  47. Stream size                              : 625 MiB (7%)
  48. Title                                    : Beasts.Of.No.Nation.2015.1080p.WEBRip.x264.DD5.1-FGT
  49. Language                                 : English
  50. Default                                  : Yes
  51. Forced                                   : No

  52. Text
  53. ID                                       : 3
  54. Format                                   : UTF-8
  55. Codec ID                                 : S_TEXT/UTF8
  56. Codec ID/Info                            : UTF-8 Plain Text
  57. Language                                 : English
  58. Default                                  : Yes
  59. Forced                                   : No
复制代码
下载地址

游客,如果您要查看本帖隐藏内容请回复



本帖子中包含更多资源

您需要 登录 才可以下载或查看,没有帐号?立即注册

x
回复

使用道具 举报

发表于 2019-4-14 13:48:53 | 显示全部楼层
dfgsdfg sdfg sdfg sdfg 爱的是法国阿斯顿发生打发士大夫阿斯蒂芬阿三d'f
回复 支持 反对

使用道具 举报

发表于 2019-4-14 13:58:57 | 显示全部楼层
Life Cycles
回复 支持 反对

使用道具 举报

发表于 2019-4-14 14:21:56 | 显示全部楼层


感谢楼主分享
回复 支持 反对

使用道具 举报

发表于 2019-4-14 14:25:46 | 显示全部楼层
谢谢分享                                   
回复 支持 反对

使用道具 举报

发表于 2019-4-14 14:36:37 | 显示全部楼层
感谢楼主分享精彩资源
回复 支持 反对

使用道具 举报

发表于 2019-4-14 14:38:21 | 显示全部楼层
感谢楼主分享
回复 支持 反对

使用道具 举报

发表于 2019-4-14 14:48:48 | 显示全部楼层
谢谢楼主分享好资源
回复 支持 反对

使用道具 举报

发表于 2019-4-14 15:08:29 | 显示全部楼层
谢楼主分享
回复 支持 反对

使用道具 举报

发表于 2019-4-14 15:14:17 | 显示全部楼层
感谢楼主分享精彩资源
回复 支持 反对

使用道具 举报

您需要登录后才可以回帖 登录 | 立即注册

本版积分规则

快速回复 返回顶部 返回列表