CHD高清论坛

 找回密码
 立即注册

QQ登录

只需一步,快速开始

搜索
热搜: 活动 交友 discuz
查看: 668|回复: 44

[剧情片] 红色罗宾.2014.1080p.AMZN.WEBRip.DDP5.1.x264-QOQ

[复制链接]
发表于 2018-3-13 10:49:28 | 显示全部楼层 |阅读模式
◎译  名 红色罗宾
◎年  代 2013
◎产  地 美国
◎类  别 剧情/惊悚
◎语  言 英语
◎上映日期 2013-08-24(蒙特利尔世界电影节)
◎IMDb评分  6.3/10 from 317 users
◎豆瓣评分 0/10 from 1 users
◎片  长 106分钟
◎导  演 Michael Z. Wechsler
◎主  演 贾德·赫希 Judd Hirsch
      Ryan O'Nan

◎简  介

  Dr. Nathaniel Shellner, 75, has led an extraordinary life as a psychiatrist working with traumatized patients fleeing war zones in refugee camps, earning a Nobel Prize for his work. After having one child, Leonard, with his wife, Lillian, the Shellners adopt the remainder of their family from the camps where Dr. Shellner worked. Ultimately the Shellners incorporated children from all over the world into their family: Tommy, Julie, Harry. As Dr. Shellner succumbs to cancer on a frigid, icy day, the family convenes at the house where the couple raised the children for a final, bittersweet farewell. Or, that’s the idea until all hell breaks loose after Tommy arrives and accuses his father of adopting his children not out of concern for their future well-being, but to use them for some warped psychological experiment…

◎获奖情况

  第37届蒙特利尔世界电影节  (2013)
  美洲大奖(提名) Michael Z. Wechsler


Video
ID                                       : 1
Format                                   : AVC
Format/Info                              : Advanced Video Codec
Format profile                           : High@L4
Format settings                          : CABAC / 4 Ref Frames
Format settings, CABAC                   : Yes
Format settings, ReFrames                : 4 frames
Codec ID                                 : V_MPEG4/ISO/AVC
Duration                                 : 1 h 32 min
Bit rate mode                            : Variable
Bit rate                                 : 5 256 kb/s
Maximum bit rate                         : 15.0 Mb/s
Width                                    : 1 920 pixels
Height                                   : 1 080 pixels
Display aspect ratio                     : 16:9
Frame rate mode                          : Constant
Frame rate                               : 23.976 (24000/1001) FPS
Color space                              : YUV
Chroma subsampling                       : 4:2:0
Bit depth                                : 8 bits
Scan type                                : Progressive
Bits/(Pixel*Frame)                       : 0.106
Stream size                              : 3.40 GiB (89%)
Default                                  : Yes
Forced                                   : No
Color range                              : Limited
Color primaries                          : BT.709
Transfer characteristics                 : BT.709
Matrix coefficients                      : BT.709

Audio
ID                                       : 2
Format                                   : E-AC-3
Format/Info                              : Enhanced Audio Coding 3
Codec ID                                 : A_EAC3
Duration                                 : 1 h 32 min
Bit rate mode                            : Constant
Bit rate                                 : 640 kb/s
Channel(s)                               : 6 channels
Channel positions                        : Front: L C R, Side: L R, LFE
Sampling rate                            : 48.0 kHz
Frame rate                               : 187.500 FPS (256 SPF)
Compression mode                         : Lossy
Stream size                              : 424 MiB (11%)
Language                                 : English
Service kind                             : Complete Main
Default                                  : Yes
Forced                                   : No

Text #1
ID                                       : 3
Format                                   : UTF-8
Codec ID                                 : S_TEXT/UTF8
Codec ID/Info                            : UTF-8 Plain Text
Duration                                 : 1 h 26 min
Bit rate                                 : 58 b/s
Count of elements                        : 1256
Stream size                              : 37.5 KiB (0%)
Language                                 : English
Default                                  : No
Forced                                   : No

Text #2
ID                                       : 4
Format                                   : UTF-8
Codec ID                                 : S_TEXT/UTF8
Codec ID/Info                            : UTF-8 Plain Text
Duration                                 : 1 h 26 min
Bit rate                                 : 59 b/s
Count of elements                        : 1256
Stream size                              : 37.5 KiB (0%)
Title                                    : SDH
Language                                 : English
Default                                  : No
Forced                                   : No

Text #3
ID                                       : 5
Format                                   : UTF-8
Codec ID                                 : S_TEXT/UTF8
Codec ID/Info                            : UTF-8 Plain Text
Duration                                 : 1 h 26 min
Bit rate                                 : 58 b/s
Count of elements                        : 1256
Stream size                              : 37.5 KiB (0%)
Language                                 : English
Default                                  : No
Forced                                   : No





回复下载:




游客,如果您要查看本帖隐藏内容请回复

本帖子中包含更多资源

您需要 登录 才可以下载或查看,没有帐号?立即注册

x
回复

使用道具 举报

发表于 2018-3-13 11:18:20 | 显示全部楼层
感謝提供資源
回复 支持 反对

使用道具 举报

发表于 2018-3-13 12:17:26 | 显示全部楼层
谢谢分享,谢谢分享
回复 支持 反对

使用道具 举报

发表于 2018-3-13 12:30:33 | 显示全部楼层
萝莉福利资源,不看别后悔:
http://z6m.me/portal.php?x=531265  
回复 支持 反对

使用道具 举报

发表于 2018-3-13 12:32:37 | 显示全部楼层
非常感谢楼主
回复 支持 反对

使用道具 举报

发表于 2018-3-13 12:40:53 | 显示全部楼层

感谢发布好电影
回复 支持 反对

使用道具 举报

发表于 2018-3-13 12:54:36 | 显示全部楼层
rrrrrrrrrrrrrrrrrrrrrrrrrrrrrrrrrrrrrrrr
回复 支持 反对

使用道具 举报

发表于 2018-3-13 13:28:33 | 显示全部楼层
感谢楼主的无私分享,辛苦了!!!
回复 支持 反对

使用道具 举报

您需要登录后才可以回帖 登录 | 立即注册

本版积分规则

快速回复 返回顶部 返回列表